One Night Carnival
氣志團

BASIC

Level: 3
BPM: 136
Notes: 242

全程BPM在136附近飄忽不定
1
口口口口 |----|
口口口口 |----|
口口口口 |----|
口口口口 |----|
2
口口口口 |①---|
①②③④ |②---|
口口口口 |③---|
口口口口 |④---|
3
④②①④ |①---|
口③③口 |②---|
口口口口 |③---|
口口口口 |④---|
4
口口口口 |①---|
①②③④ |②---|
口口口口 |③---|
口口口口 |④---|
5
④②①④ |①---|
口③③口 |②---|
口口口口 |③---|
口口口口 |④---|
6
口口口口 |①---|
①②③④ |②---|
口口口口 |③---|
口口口口 |④---|
7
④②①④ |①---|
口③③口 |②---|
口口口口 |③---|
口口口口 |④---|
8
口口口口 |①---|
①②③④ |②---|
口口口口 |③---|
口口口口 |④---|
9
口口口口 |①---|
口③③口 |②---|
口②①口 |③---|
口口口口 |----|
10
口①②口 |①---|
口口④③ |②---|
口口口口 |③---|
口口口口 |④---|
11
口口口口 |①---|
②①口口 |②---|
口③③口 |③---|
口口口口 |----|
12
口口口口 |①---|
口口口口 |②---|
口口口口 |③---|
④③②① |④---|
13
④口口④ |①---|
口③③口 |②---|
口①②口 |③---|
口口口口 |④---|
14
口口口口 |----|
口口口口 |----|
口口口口 |----|
口口口口 |----|
15
口口口口 |①---|
口口口口 |②---|
口③④口 |③---|
口①②口 |④---|
16
口③④口 |①---|
口①②口 |②---|
口口口口 |③---|
口口口口 |④---|
17
②口口② |----|
口①①口 |----|
口口口口 |①---|
口口口口 |②---|
18
口①②口 |①---|
口口口③ |②---|
口口④口 |③---|
口口口口 |④---|
19
④口口④ |①---|
②③③口 |②---|
口①口口 |③---|
口口口口 |④---|
20
口①②口 |①---|
口口口③ |②---|
口口④口 |③---|
口口口口 |④---|
21
④口口④ |①---|
②③③口 |②---|
口①口口 |③---|
口口口口 |④---|
22
口②①口 |①---|
③口口口 |②---|
口④口口 |③---|
口口口口 |④---|
23
④口口④ |①---|
口③③② |②---|
口口①口 |③---|
口口口口 |④---|
24
口②①口 |①---|
③口口口 |②---|
口④口口 |③---|
口口口口 |④---|
25
口口口口 |①---|
口①①口 |----|
口口口口 |----|
口口口口 |----|
26
①①①① |①---|
口口口口 |----|
口口口口 |----|
口口口口 |----|
27
口②③口 |①---|
①口口④ |②---|
口口口口 |③---|
口口口口 |④---|
28
口口口口 |①---|
口口口口 |----|
②①①口 |②---|
口③口口 |③---|
29
口口口口 |①---|
口口口口 |②---|
口④③② |③---|
口口①口 |④---|
30
口口口口 |①---|
口②②口 |----|
①口口口 |②---|
口口口口 |----|
31
①口口① |①---|
口②②口 |----|
口口口口 |②---|
口口口口 |----|
32
口口口口 |①---|
口口口口 |----|
①③口① |②---|
口②②口 |③---|
33
口②口口 |①---|
口口①口 |②---|
口口口口 |----|
口口口口 |----|
34
口口口口 |①---|
口①①口 |----|
口口口口 |----|
口口口口 |----|
35
口②口口 |①---|
①口③口 |②---|
口口口口 |③---|
口口口口 |----|
36
口③口口 |①---|
口口②口 |----|
口①①口 |②---|
口口口口 |③---|
37
口口口口 |①---|
①口口口 |②---|
②口④口 |③---|
口③口口 |④---|
38
口②③口 |①---|
口①①口 |----|
口口口口 |②---|
口口口口 |③---|
39
①口口① |①---|
口②②口 |----|
口口口口 |②---|
口口口口 |----|
40
口口口口 |①---|
口口口口 |----|
口①①口 |----|
口口口口 |----|
41
口口④口 |①---|
口③口口 |②---|
口口②口 |③---|
口①口口 |④---|
42
口①口口 |①---|
口口②口 |②---|
口口口口 |----|
口口口口 |----|
43
口口口口 |①---|
口①①口 |----|
口①①口 |----|
口口口口 |----|
44
口口口口 |----|
口②②口 |----|
口①①口 |①---|
口口口口 |②---|
45
①口口① |①---|
口口口口 |----|
口口口口 |----|
口口口口 |----|
46
口口口口 |----|
口①①口 |----|
口口口口 |----|
口口口口 |①---|
47
①口口① |①---|
口口口口 |----|
口口口口 |----|
口口口口 |----|
48
口口②口 |①---|
口口口口 |----|
①口口① |----|
口口口口 |②---|
49
口口口口 |①---|
口①②口 |②---|
口③口口 |③---|
④口口④ |④---|
50
④口口④ |①---|
口口③口 |②---|
口②①口 |③---|
口口口口 |④---|
51
口口口口 |①---|
口①②口 |②---|
口③口口 |③---|
④口口④ |④---|
52
④口口④ |①---|
口口③口 |②---|
口②①口 |③---|
口口口口 |④---|
53
口口口口 |①---|
口①②口 |②---|
口③口口 |③---|
④口口④ |④---|
54
④口口④ |①---|
口口③口 |②---|
口②①口 |③---|
口口口口 |④---|
55
口口口口 |①---|
口①②口 |②---|
口③口口 |③---|
④口口④ |④---|
56
④口口④ |①---|
口口③口 |②---|
口②①口 |③---|
口口口口 |④---|
57
③口口③ |①---|
口②②口 |----|
口①①口 |--②-|
口口口口 |③---|
58
口口口口 |----|
②口口② |----|
口①①口 |--①-|
口口口口 |②---|
59
②口口② |----|
口①①口 |----|
口口口口 |--①-|
口口口口 |②---|
60
口口口口 |----|
②口口② |----|
口①①口 |--①-|
口口口口 |②---|
61
口口口口 |①---|
口口口口 |----|
口口口口 |----|
①①①① |----|


不确定度: 0

最終更新:2012年12月28日 02:40