candii
八王子P

EXTREME

Level: 9
BPM: 132
Notes: 708

1
口口口口 |----|
口口口口 |----|
口口口口 |----|
口口口口 |----|
2
口⑦②口 |①-②-|
⑨⑤口⑧ |③④--|
③口⑩④ |⑤-⑥-|
①口⑥① |⑦⑧⑨⑩|
3
口⑦②口 |①-②-|
口⑤口⑧ |③④--|
③⑨口④ |⑤-⑥-|
①口⑥⑩ |⑦⑧⑨⑩|
4
口⑦②口 |①-②-|
⑨⑤口⑧ |③④--|
③口⑩④ |⑤-⑥-|
①口⑥口 |⑦⑧⑨⑩|
5
⑨口②⑧ |①-②-|
口⑤口口 |③④--|
③⑦⑩④ |⑤-⑥⑦|
①⑪⑥口 |⑧⑨⑩⑪|
6
口②⑦口 |①-②-|
⑧口⑤⑨ |③④--|
④⑩口③ |⑤-⑥-|
①⑥口① |⑦⑧⑨⑩|
7
口②⑦口 |①-②-|
⑧口⑤口 |③④--|
④口⑨③ |⑤-⑥-|
⑩⑥口① |⑦⑧⑨⑩|
8
口②⑦口 |①-②-|
⑧口⑤⑨ |③④--|
④⑩口③ |⑤-⑥-|
口⑥口① |⑦⑧⑨⑩|
9
口口口口 |①-②-|
口口②口 |-③--|
③口口③
①口②①

⑦口口④
口④口口
⑩⑥⑤口 |④-⑤⑥|
口口⑧⑨ |⑦⑧⑨⑩|
10
口⑧①④ |①--②|
⑥②②⑧ |-③④-|
⑦口口③ |-⑤⑥-|
⑤①⑦口 |⑦-⑧-|
11
⑥口①④ |①--②|
口②②口 |-③④-|
⑤⑦⑦③ |-⑤⑥-|
⑧①口⑧ |⑦-⑧-|
12
④①口口 |①--②|
⑧②②⑥ |-③④-|
③口⑦口 |-⑤⑥-|
⑨口①⑤ |⑦-⑧⑨|
13
④①口⑥ |①--②|
口②②口 |-③④-|
③⑧⑨⑤ |-⑤⑥-|
⑦口①⑦ |⑦-⑧⑨|
14
口⑧①④ |①--②|
⑥②②⑧ |-③④-|
⑦口口③ |-⑤⑥-|
⑤①⑦口 |⑦-⑧-|
15
⑥口①④ |①--②|
口②②口 |-③④-|
⑤⑦⑦③ |-⑤⑥-|
⑧①口⑧ |⑦-⑧-|
16
④①口口 |①--②|
口②②口 |-③④-|
③口口口
口口①口

口口口口
口口⑧⑥
口⑨⑦口 |-⑤⑥-|
口口口⑤ |⑦-⑧⑨|
17
口口①① |①---|
口②口口 |②-③④|
①口③口
①④口口

口⑦口口
⑥口口口
⑧⑨口口 |⑤-⑥-|
口口口⑤ |⑦-⑧⑨|
18
⑯⑫①⑤ |①②③④|
⑧④⑨⑬ |⑤⑥⑦⑧|
⑮⑪⑥② |⑨⑩⑪⑫|
⑦③⑭⑩ |⑬⑭⑮⑯|
19
⑯⑫①⑤ |①②③④|
⑧④⑨⑬ |⑤⑥⑦⑧|
⑮⑪⑥② |⑨⑩⑪⑫|
⑦③⑭⑩ |⑬⑭⑮⑯|
20
⑬⑨④⑧ |①②③④|
⑤①⑫⑯ |⑤⑥⑦⑧|
⑩⑭③⑦ |⑨⑩⑪⑫|
②⑥⑪⑮ |⑬⑭⑮⑯|
21
⑬⑨④⑧ |①②③④|
⑤①⑫⑯ |⑤⑥⑦⑧|
⑩⑭③⑦ |⑨⑩⑪⑫|
②⑥⑪⑮ |⑬⑭⑮⑯|
22
⑯⑫①⑤ |①②③④|
⑧④⑨⑬ |⑤⑥⑦⑧|
⑮⑪⑥② |⑨⑩⑪⑫|
⑦③⑭⑩ |⑬⑭⑮⑯|
23
⑯⑫①⑤ |①②③④|
⑧④⑨⑬ |⑤⑥⑦⑧|
⑮⑪⑥② |⑨⑩⑪⑫|
⑦③⑭⑩ |⑬⑭⑮⑯|
24
⑬⑨④⑧ |①②③④|
⑤①⑫⑮ |⑤⑥⑦⑧|
⑩⑭③⑦ |⑨⑩⑪⑫|
②⑥⑪⑮ |⑬⑭⑮-|
25
口③口口 |①--②|
③②口口 |--③-|
口口②口
①①口口

④口口⑤
口口⑥口
口⑦口口 |--④-|
⑤⑤④④ |⑤-⑥⑦|
26
口口口口 |①---|
②③③① |--②-|
②口口① |----|
③口口③ |③---|
27
①①①① |--①-|
②③②③ |----|
口③②口 |②---|
口口口口 |③---|
28
口②口口 |①-②-|
②口口口 |-③--|
③口口口
①③口①

④口口口
⑥④口⑤
⑧口口⑦ |--④-|
口口口口 |⑤⑥⑦⑧|
29
口口①① |--①-|
④口口③ |-②③④|
口口口口
②②口口

口口口口
口⑧⑦口
⑥⑩⑨口 |⑤-⑥-|
口⑫⑪⑤ |⑦⑧⑨⑩⑪⑫|
30
口口口口 |①---|
②③③① |--②-|
②口口① |----|
③口口③ |③---|
31
①①①① |--①-|
②③②③ |----|
口③②口 |②---|
口口口口 |③---|
32
口②口口 |①-②-|
②口口口 |-③--|
③口口口
①③口①

④口口口
⑥④口⑤
⑧口口⑦ |--④-|
口口口口 |⑤⑥⑦⑧|
33
口①口③ |①--②|
口口①③ |--③-|
口②口口
③口②口

④⑩⑨口
④⑧⑦口
口⑥⑤口 |-④--|
口口口④ |⑤⑥⑦⑧⑨⑩|
34
口口口口 |①-②-|
口口④① |--③④|
③口④①
口②②口

口⑤⑤口
口⑦口⑥
口⑦口口 |--⑤-|
口口口口 |--⑥⑦|
35
③③口④ |--①-|
①口⑥口 |--②③|
①⑦口口 |--④⑤|
⑤⑤口② |--⑥⑦|
36
⑤口口② |--①-|
④口口① |--②③|
④口口① |--④-|
③③⑥⑥ |--⑤⑥|
37
口③③口 |--①-|
口口口口 |--②③|
②①①口
口口口口

④口口口
口⑥⑤口
口⑧⑦口 |--④-|
口⑩⑨口 |⑤⑥⑦⑧⑨⑩|
38
口口口口 |①-②-|
口口④① |--③④|
③口④①
②口口②

口⑤⑤口
口⑦口⑥
口⑦口口 |--⑤-|
口口口口 |--⑥⑦|
39
③③口④ |--①-|
①口⑥口 |--②③|
①⑦口口 |--④⑤|
⑤⑤口② |--⑥⑦|
40
⑤口口② |--①-|
④口口① |--②③|
④口口① |--④-|
③③⑥⑥ |--⑤⑥|
41
口口①① |①-②-|
口②口口 |-③--|
口口③口
口口口口

④口口⑥
⑤口口⑦
口⑩⑪口 |④⑤⑥⑦|
⑧口口⑨ |⑧⑨⑩⑪|
42
口⑧①④ |①--②|
⑥②②⑧ |-③④-|
⑦口口③ |-⑤⑥-|
⑤①⑦口 |⑦-⑧-|
43
⑥口①④ |①--②|
口②②口 |-③④-|
⑤⑦⑦③ |-⑤⑥-|
⑧①口⑧ |⑦-⑧-|
44
④①口口 |①--②|
⑧②②⑥ |-③④-|
③口⑦口 |-⑤⑥-|
⑨口①⑤ |⑦-⑧⑨|
45
④①口⑥ |①--②|
口②②口 |-③④-|
③⑧⑨⑤ |-⑤⑥-|
⑦口①⑦ |⑦-⑧⑨|
46
口⑧①④ |①--②|
⑥②②⑧ |-③④-|
⑦口口③ |-⑤⑥-|
⑤①⑦口 |⑦-⑧-|
47
⑥口①④ |①--②|
口②②口 |-③④-|
⑤⑦⑦③ |-⑤⑥-|
⑧①口⑧ |⑦-⑧-|
48
④①口口 |①--②|
口②②口 |-③④-|
③口口口
口口①口

口口口口
口口⑧⑥
口⑨⑦口 |-⑤⑥-|
口口口⑤ |⑦-⑧⑨|
49
③口①① |①--②|
口②口⑤ |③-④⑤|
①口④口
①口口口

口口口⑥
⑥口口口
⑦⑧口口 |--⑥-|
口口⑨⑦ |⑦-⑧⑨|
50
⑯⑫①⑤ |①②③④|
⑧④⑨⑬ |⑤⑥⑦⑧|
⑮⑪⑥② |⑨⑩⑪⑫|
⑦③⑭⑩ |⑬⑭⑮⑯|
51
⑯⑫①⑤ |①②③④|
⑧④⑨⑬ |⑤⑥⑦⑧|
⑮⑪⑥② |⑨⑩⑪⑫|
⑦③⑭⑩ |⑬⑭⑮⑯|
52
⑬⑨④⑧ |①②③④|
⑤①⑫⑯ |⑤⑥⑦⑧|
⑩⑭③⑦ |⑨⑩⑪⑫|
②⑥⑪⑮ |⑬⑭⑮⑯|
53
⑬⑨④⑧ |①②③④|
⑤①⑫⑯ |⑤⑥⑦⑧|
⑩⑭③⑦ |⑨⑩⑪⑫|
②⑥⑪⑮ |⑬⑭⑮⑯|
54
⑯⑫①⑤ |①②③④|
⑧④⑨⑬ |⑤⑥⑦⑧|
⑮⑪⑥② |⑨⑩⑪⑫|
⑦③⑭⑩ |⑬⑭⑮⑯|
55
⑯⑫①⑤ |①②③④|
⑧④⑨⑬ |⑤⑥⑦⑧|
⑮⑪⑥② |⑨⑩⑪⑫|
⑦③⑭⑩ |⑬⑭⑮⑯|
56
口④①口 |①--②|
⑥②②⑥ |--③-|
口⑤⑤口 |④--⑤|
③①④③ |--⑥-|
57
④④①① |①-②-③-|
口⑥⑥口 |④-⑤-⑥-|
②口口③
②⑤⑤③

口口口⑧
口口口口
⑨⑦⑦⑩ |⑦-⑧⑨|
⑨口口⑩ |⑩---|


不确定度: 0

最終更新:2012年11月07日 23:18