One Night Carnival
氣志團

ADVANCED

Level: 6
BPM: 136
Notes: 403

全程BPM在136附近飄忽不定
1
口口口口 |----|
口口口口 |----|
口口口口 |----|
口口口口 |----|
2
①口口口 |①---|
口②口口 |②---|
口口③口 |③---|
口口口④ |④---|
3
口①口口 |①-②-|
⑥口②⑥ |③-④-|
口③口口 |⑤---|
⑤口④⑤ |⑥---|
4
口口口① |①---|
口口②口 |②---|
口③口口 |③---|
④口口口 |④---|
5
口口①口 |①-②-|
⑥②口⑥ |③-④-|
口口③口 |⑤---|
⑤④口⑤ |⑥---|
6
①口口口 |①---|
口②口口 |②---|
口口③口 |③---|
口口口④ |④---|
7
口①口口 |①-②-|
⑥口②⑥ |③-④-|
口③口口 |⑤---|
⑤口④⑤ |⑥---|
8
口口口① |①---|
口口②口 |②---|
口③口口 |③---|
④口口口 |④---|
9
口口①口 |①-②-|
口②⑦口 |③-④-|
⑥口③口 |⑤--⑥|
口④口⑤ |--⑦-|
10
①②口口 |--①-|
口④口③ |②---|
口口口⑤ |③--④|
口口口口 |--⑤-|
11
口口口口 |①-②-|
口口口口 |③--④|
③②①口 |----|
口④④口 |----|
12
①口②口 |--①-|
口③④口 |②---|
⑤口口⑥ |③④-⑤|
口口口口 |--⑥-|
13
⑤口口⑤ |①-②-|
口④④口 |③---|
口①口口 |④---|
③口②口 |⑤---|
14
口口口口 |--①-|
口口口口 |-②--|
口③口④ |③--④|
①口②口 |----|
15
口口口口 |--①-|
口③口④ |-②--|
①口②口 |③--④|
口口口口 |----|
16
口③口④ |--①-|
①口②口 |-②--|
口口口口 |③--④|
口口口口 |----|
17
①口②口 |--①-|
口口口口 |-②--|
口口口口
口口口口

④口口④
口③③口
口口口口 |③---|
口口口口 |④---|
18
④口口口 |①---|
口②口口 |②---|
口口①口 |③---|
口口口③ |④---|
19
口口口② |①---|
③口①④ |②---|
④①口③ |③---|
②口口口 |④---|
20
④口口口 |①---|
口②口口 |②---|
口口①口 |③---|
口口口③ |④---|
21
口口口② |①---|
③口①④ |②---|
④①口③ |③---|
②口口口 |④---|
22
口口口④ |①---|
口口②口 |②---|
口①口口 |③---|
③口口口 |④---|
23
②口口口 |①---|
④①口③ |②---|
③口①④ |③---|
口口口② |④---|
24
④⑤⑤③ |①---|
口口①口 |②---|
口②口口 |③---|
口口口口 |④-⑤-|
25
口口口口 |①---|
口①①口 |----|
口口口口 |----|
口口口口 |----|
26
口口口口 |①---|
①①①① |--②-|
②口口口
口②口口

口④⑤口
④⑥⑥⑤
口口口③ |③-④-|
口口③口 |⑤-⑥-|
27
①口口① |①---|
口口口口 |②-③-|
口②②口 |----|
③口口③ |----|
28
口口口口 |①---|
⑥口口口 |--②-|
④口口⑤ |③-④-|
②①①③ |⑤-⑥-|
29
②①④③ |①---|
③④①② |②---|
口口口口 |③---|
口口口口 |④---|
30
口①口口 |①---|
④口①④ |--②-|
③口口③ |③-④-|
②口口② |----|
31
口①①口 |①---|
口口口口 |--②-|
口②②口 |③---|
口③③口 |----|
32
①口口① |①---|
④口口⑤ |--②-|
②④⑤② |③---|
③口口③ |④-⑤-|
33
口①②口 |--①-|
口②①口 |②---|
口口口口 |----|
口口口口 |----|
34
⑥口口⑥ |①---②-|
④口口⑤ |--③---|
②④⑤③ |④---⑤-|
①②③① |--⑥---|
35
口①①口 |①---|
口口口口 |②-③-|
③口口③ |----|
口②②口 |----|
36
口口口口 |①---|
⑥①①口 |--②-|
④口口⑤ |③-④-|
②口口③ |⑤-⑥-|
37
②①④③ |①---|
③④①② |②---|
口口口口 |③---|
口口口口 |④---|
38
口①口口 |①---|
④口①④ |--②-|
③口口③ |③-④-|
②口口② |----|
39
口①②③ |①---|
④⑤⑤④ |--②-|
③②①口 |③---|
口口口口 |④-⑤-|
40
①口口① |--①-|
口口口口 |----|
口口口口 |----|
②口口口 |--②-|
41
口口口③ |①---|
④②②口 |②---|
口①①⑤ |③-④-|
⑥口口口 |⑤-⑥-|
42
③③③③ |--①-|
口口口口 |②---|
口②①口 |--③-|
口口口口 |----|
43
④口口④ |①--②|
口③③口 |--③-|
口②②口 |--④-|
口①①口 |----|
44
口口口口 |----|
口口口口 |----|
口口口口 |①---|
①①②② |②---|
45
③②②③ |①---|
①口口① |②-③-|
④口口④ |--④-|
⑤口口⑤ |⑤---|
46
口口口口 |----|
口口口口 |----|
口口口口 |--①-|
①①②② |②---|
47
②口口③ |①--②|
口②③口 |--③-|
①④④① |----|
口口口口 |--④-|
48
口口口口 |①---|
口口口口 |----|
④口口口 |--②-|
②①①③ |③-④-|
49
⑥口口⑦ |①-②-|
口⑥⑦口 |③-④-|
口②③① |⑤-⑥-|
口④⑤口 |⑦---|
50
⑤口口⑥ |①-②-|
口⑤⑥口 |③-④-|
口口口口 |--⑤-|
①③④② |⑥---|
51
⑤口口⑥ |①-②-|
口⑤⑥口 |③-④-|
口口口口 |--⑤-|
①③④② |⑥---|
52
⑤口口⑥ |①-②-|
口⑤⑥口 |③-④-|
口口口口 |--⑤-|
①③④② |⑥---|
53
⑤口口⑥ |①-②-|
口⑤⑥口 |③-④-|
①口口② |--⑤-|
③口口④ |⑥---|
54
⑤口口⑥ |①-②-|
口⑤⑥口 |③-④-|
①口口② |--⑤-|
③口口④ |⑥---|
55
⑤口口⑥ |①-②-|
口⑤⑥口 |③-④-|
①口口② |--⑤-|
③口口④ |⑥---|
56
⑤口口⑥ |①-②-|
口⑤⑥口 |③-④-|
①口口② |--⑤-|
③口口④ |⑥---|
57
④口口⑤ |①--②|
口④⑤口 |--③-|
②口口③ |--④-|
口①①口 |⑤---|
58
④口口⑤ |①--②|
口④⑤口 |--③-|
②口口③ |--④-|
口①①口 |⑤---|
59
④口口⑤ |①--②|
口④⑤口 |--③-|
②口口③ |--④-|
口①①口 |⑤---|
60
④口口⑤ |①--②|
口④⑤口 |--③-|
②口口③ |--④-|
口①①口 |⑤---|
61
口口口口 |①---|
口口口口 |----|
①①①① |----|
口口口口 |----|


不确定度: 0

最終更新:2012年12月28日 02:37