ひかり
KREVA

EXTREME

Level: 8
BPM: 127
Notes: 535

1
口口口口 |----|
口口②口 |----|
口②①② |----|
口口②口 |①-②-|
2
②口①② |①---|
口③⑤口 |②---|
①⑥④口 |③-④-|
口口口口 |⑤-⑥-|
3
口⑤⑤口 |①---|
②口口② |②---|
口③④口 |③-④-|
①口口① |⑤---|
4
①③⑥口 |--①-|
②⑤口口 |②-③-|
④口口口 |④-⑤-|
⑦口口口 |⑥-⑦-|
5
口口口② |①---|
口口口② |--②-|
④①口④ |----|
③口口③ |③-④-|
6
口④③口 |①---|
①⑤⑥① |②---|
口口口口 |③-④-|
口②②口 |⑤-⑥-|
7
②口口② |①---|
口③④口 |②---|
口④⑤口 |③-④-|
①口口① |⑤---|
8
⑦④②① |--①-|
口口⑤③ |②-③-|
口口口⑥ |④-⑤-|
口口口口 |⑥-⑦-|
9
口口口口 |①---|
口①口口 |--②-|
③④⑤口 |--③-|
口②②口 |④-⑤-|
10
口口口口 |①---|
口口口口 |----|
口口口① |----|
口口口口 |----|
11
口口口口 |①---|
①①①① |----|
口②②口 |----|
口口口口 |--②-|
12
①①①① |①---|
口口口口 |----|
口口口口 |----|
口口口口 |----|
13
③③③③ |①---|
⑤②②⑤ |②-③-|
④口口④ |----|
①①①① |④-⑤-|
14
①口口① |①---|
口口口口 |----|
口口口口 |----|
口口口口 |----|
15
口口口口 |①---|
③①①③ |----|
②①①② |----|
口口口口 |②-③-|
16
①口口① |①---|
口口口口 |----|
口口口口 |----|
口口口口 |----|
17
口④⑤口 |①②-③|
③口口③ |-④⑤-|
口①②口
口口口口

口⑫⑬口
口⑩⑪口
口⑧⑨口 |⑥⑦⑧⑨|
口⑥⑦口 |⑩⑪⑫⑬|
18
口口口口 |①---|
①口口① |②-③-|
口②口⑤ |--④-|
④口⑥③ |⑤⑥--|
19
①⑥⑦① |①---|
口口口口 |②-③-|
口②口⑤ |--④-|
④口口③ |⑤-⑥⑦|
20
①口口① |①---|
①口口① |②-③-|
口②口⑤ |--④-|
④口⑥③ |⑤⑥--|
21
①⑦⑧① |①--②|
④口口④ |③-④-|
②③口⑥ |--⑤-|
⑤口口口 |⑥-⑦⑧|
22
口口口口 |①---|
①口口① |②-③-|
口②口⑤ |--④-|
④口⑥③ |⑤⑥--|
23
①⑥⑦① |①---|
口口口口 |②-③-|
口②口⑤ |--④-|
④口口③ |⑤-⑥⑦|
24
①口口① |①---|
①口口① |②-③-|
口②口⑤ |--④-|
④口⑥③ |⑤⑥--|
25
①⑫⑬① |①--②|
③⑩⑪⑤ |③④⑤-|
②⑧⑨④ |⑥⑦⑧⑨|
口⑥⑦口 |⑩⑪⑫⑬|
26
①⑧⑧① |①---|
①③④① |②-③-|
⑥②口⑥ |④-⑤-|
⑤口⑦③ |⑥⑦⑧-|
27
①⑥⑦① |①---|
口⑥口口 |②-③-|
口②⑤⑤ |--④-|
④④口③ |⑤-⑥⑦|
28
①口口① |①-②-|
①口②① |③-④-|
口③口口
口口口④

口口口口
口⑦⑨口
⑤口⑥⑦ |⑤-⑥-|
⑥口⑧口 |⑦⑧⑨-|
29
①口②① |①-②③|
⑤口口⑤ |④-⑤-|
③④⑤口
口口口口

口⑨⑩口
口⑥⑥口
口口口⑧ |⑥-⑦-|
⑦⑧⑧口 |⑧-⑨⑩|
30
①⑧⑧① |①---|
①③④① |②-③-|
⑥②口⑥ |④-⑤-|
⑤口⑦③ |⑥⑦⑧-|
31
①⑥⑦① |①---|
口⑥口口 |②-③-|
口②⑤⑤ |--④-|
④④口③ |⑤-⑥⑦|
32
①口口① |①-②-|
①口②① |③-④-|
口③口口
口口口④

口口口口
口⑦口⑥
⑤⑨⑨⑦ |⑤-⑥-|
⑥口⑧口 |⑦⑧⑨-|
33
①②②① |①-②③|
④口口⑥ |④⑤⑥-|
③口口⑤
口口口口

⑪⑬⑭⑪
口⑪⑫口
口⑨⑩口 |⑦⑧⑨⑩|
⑦⑦⑧⑦ |⑪⑫⑬⑭|
34
口口口口 |①---|
①③口① |②-③-|
①②口①
口口口③

口⑧⑧口
口口④口
⑥口口⑥ |④-⑤-|
⑤口⑦口 |⑥⑦⑧-|
35
①⑥⑦① |①---|
口口口口 |②-③-|
口②口⑤ |--④-|
④口口③ |⑤-⑥⑦|
36
①口口① |①-②-|
①口②① |③-④-|
口③口口
口口口④

口口口口
口⑤⑨口
口口口⑦ |⑤-⑥-|
⑥口⑧口 |⑦⑧⑨-|
37
①⑦⑧① |①--②|
④口口④ |③-④-|
②③口⑥ |--⑤-|
⑤口口口 |⑥-⑦⑧|
38
口④④口 |①---|
①⑧口① |②-③-|
⑥②②⑥ |④-⑤-|
⑤口⑦③ |⑥⑦⑧-|
39
①⑧⑨① |①-②-|
口口②口 |③-④-|
⑤③口⑦ |⑤-⑥-|
⑥口④④ |⑦-⑧⑨|
40
①口口① |①-②-|
①②口① |③-④-|
口③口口
口口口④

口口口口
口⑨⑨口
口口⑤⑦ |⑤-⑥-|
⑥口⑧口 |⑦⑧⑨-|
41
①②②① |①-②③|
④口口⑥ |④⑤⑥-|
③口口⑤
口口口口

⑪⑬⑭口
口⑪⑫口
⑬⑨⑩口 |⑦⑧⑨⑩|
⑦⑦⑧⑦ |⑪⑫⑬⑭|
42
口口口口 |①---|
①④⑧① |②-③-|
口②口⑥ |④-⑤-|
⑤②⑦③ |⑥⑦⑧-|
43
①⑦⑧① |①---|
口④④口 |②-③-|
②②口⑥ |④-⑤-|
⑤口口③ |⑥-⑦⑧|
44
①⑤口① |①-②-|
①②⑨① |③-④-|
口③口⑦ |⑤-⑥-|
⑥口⑧④ |⑦⑧⑨-|
45
①口口① |①--②|
④口口④ |③-④-|
②③口口
口口口口

口⑦⑧口
口口口口
⑥口口⑥ |--⑤-|
⑤口口口 |⑥-⑦⑧|
46
口口口口 |①---|
①④⑧① |②-③-|
口②②⑥ |④-⑤-|
⑤口⑦③ |⑥⑦⑧-|
47
①⑦⑧① |①---|
口④口口 |②-③-|
②②口⑥ |④-⑤-|
⑤口口③ |⑥-⑦⑧|
48
①口口① |①-②-|
①②⑨① |③-④-|
口③⑤⑦ |⑤-⑥-|
⑥口⑧④ |⑦⑧⑨-|
49
①③口① |①--②|
口口口⑤ |③④⑤-|
②口口④
⑤口口⑤

⑧⑫⑬口
⑩⑩⑪口
⑫⑧⑨口 |⑥⑦⑧⑨|
口⑥⑦口 |⑩⑪⑫⑬|
50
口口口口 |①---|
口口口① |②-③-|
口②口口
①口口③

口口口口
口口口口
口口口⑤ |--④-|
④口⑥口 |⑤⑥--|
51
①⑥⑦① |①---|
口⑥口口 |②-③-|
口②口⑤ |--④-|
④口口③ |⑤-⑥⑦|
52
①口口① |①---|
①口口① |②-③-|
口②口⑤ |--④-|
④口⑥③ |⑤⑥--|
53
①口口① |①--②|
④口口④ |③-④-|
②③口口
口口口口

口⑦⑧口
口口口口
⑥口口⑥ |--⑤-|
⑤口口口 |⑥-⑦⑧|
54
口口口口 |①---|
①口口① |----|
口口口口 |----|
口口口口 |----|

不確定度: 0

最終更新:2014年08月01日 02:31