RIGHT NOW
GOOD4NOTHING

EXTREME

Level: 9
BPM: 184
Notes: 630

全程BPM在184附近飄忽不定
1
口口口口 |----|
口口口口 |----|
口口口口 |----|
口口口口 |----|
2
口口口口 |①---|
①②③④ |②---|
口口口口 |③---|
口口口口 |④---|
3
口口②④ |①---|
口口③④ |②---|
口口③② |③---|
①①①① |④---|
4
③①口口 |----|
①①口口 |①---|
①②口口 |②---|
口口口口 |③---|
5
口②③① |①---|
②②③③ |②---|
②口③口 |③---|
①口④④ |④---|
6
口②口② |①---|
口③③口 |②---|
口①口① |③---|
口④④口 |④---|
7
口口②④ |①---|
口口③④ |②---|
口口③② |③---|
①口口① |④---|
8
④②口口 |①---|
②②口口 |②---|
②③口口 |③---|
口①口口 |④---|
9
口②③① |①---|
②②③③ |②---|
②口③口 |③---|
①口④④ |④---|
10
口②口② |①---|
③③③③ |②---|
口①口① |③---|
④④④④ |④---|
11
②④④口 |①-②-|
口口口口 |--③-|
①③③口 |--④-|
口⑤⑤口 |--⑤-|
12
口口口② |①-②-|
口④④口 |--③-|
口③③① |--④-|
口⑤⑤口 |--⑤-|
13
②④④口 |①-②-|
口口口口 |--③-|
①③③口 |--④-|
口⑤⑤口 |--⑤-|
14
口口口② |①-②-|
口④④口 |--③-|
口③③① |--④-|
口⑤⑤口 |--⑤-|
15
②④④口 |①-②-|
口口口口 |--③-|
①③③口 |--④-|
口⑤⑤口 |--⑤-|
16
口口口② |①-②-|
口④④口 |--③-|
口③③① |--④-|
口⑤⑤口 |--⑤-|
17
②④④口 |①-②-|
口口口口 |--③-|
①③③口 |--④-|
口⑤⑤口 |--⑤-|
18
口⑥⑤④ |①-②-|
③⑧⑦③ |③-④-|
口⑩⑨② |⑤⑥⑦⑧|
①⑫⑪① |⑨⑩⑪⑫|
19
④口口⑤ |①-②-|
⑥口口③ |③-④-|
②口口⑦ |⑤-⑥-|
⑧口口① |⑦-⑧-|
20
⑧④口⑥ |①-②-|
口口③口 |③-④-|
口②口口 |⑤-⑥-|
⑦口①⑤ |⑦-⑧-|
21
口④③口 |①-②-|
口⑥⑤口 |③-④-|
①②口① |⑤-⑥-|
⑧口口⑦ |⑦-⑧-|
22
口口口口 |①-②-|
④⑥⑤③ |③-④-|
②口口① |⑤---|
口⑥⑤口 |⑥---|
23
口④③口 |①-②-|
口⑥⑤口 |③-④-|
①②口① |⑤-⑥-|
⑧口口⑦ |⑦-⑧-|
24
口口口口 |①-②-|
④⑤⑤③ |③-④-|
②口口① |⑤---|
口⑥⑥口 |⑥---|
25
口④③口 |①-②-|
口⑥⑤口 |③-④-|
①②口① |⑤-⑥-|
⑧口口⑦ |⑦-⑧-|
26
口口口口 |①-②-|
④⑥⑤③ |③-④-|
②口口① |⑤---|
口⑥⑤口 |⑥---|
27
口④③口 |①-②-|
口⑥⑤口 |③-④-|
①②口① |⑤-⑥-|
⑧口口⑦ |⑦-⑧-|
28
口⑥口口 |①-②-|
④⑧⑦③ |③-④-|
②⑩⑨① |⑤--⑥|
口⑤⑤口 |⑦⑧⑨⑩|
29
①口口① |①---|
口⑤⑤④ |②---|
口口口③ |③-④-|
②口口② |--⑤-|
30
口口口口 |----|
口③③口 |①---|
口②②口 |②---|
口①①口 |③---|
31
口①①口 |①---|
②口口③ |--②-|
口口口口 |③---|
口口口口 |----|
32
口口口⑤ |①-②-|
③口口④ |--③-|
①口口② |④---|
口口口口 |⑤---|
33
口②②口 |①---|
口④⑤口 |②---|
口③③口 |③---|
口①①口 |④-⑤-|
34
口口口口 |----|
③口口③ |①---|
②口口② |②---|
①口口① |③---|
35
①口口① |①---|
口②③口 |--②-|
口口口口 |③---|
口口口口 |----|
36
口口口⑤ |①-②-|
③口口④ |--③-|
①口口② |④---|
口口口口 |⑤---|
37
口④⑤⑥ |①-②-|
③口③口 |③---|
口口②口 |④-⑤-|
口口①口 |⑥---|
38
④⑤⑥口 |①-②-|
口③③口 |③---|
口②口口 |④-⑤-|
口①口口 |⑥---|
39
口口口口 |①-②-|
④口③⑤ |③-④-|
口口②⑥ |⑤-⑥-|
口口①⑦ |⑦---|
40
①口口② |①-②-|
③口口④ |--③-|
口口口⑤ |④---|
口口口口 |⑤---|
41
④⑤⑥⑦ |①-②-|
口③③口 |③---|
口口②口 |④-⑤-|
口口①口 |⑥-⑦-|
42
口口口口 |①-②-|
④③③④ |③---|
口②口⑤ |④-⑤-|
⑥①口⑥ |⑥---|
43
口口口口 |①-②-|
④口③⑤ |③-④-|
口口②⑥ |⑤-⑥-|
口口①⑦ |⑦---|
44
①口口② |①-②-|
③口口④ |--③-|
口口口口 |④---|
口⑤⑤口 |⑤---|
45
①口口① |①---|
②口口③ |--②-|
②口口③ |③---|
口口口口 |----|
46
口①①口 |----|
口②口口 |----|
口口③口 |----|
口④口口 |①②③④|
47
①口口① |①---|
②口口③ |--②-|
②口口③ |③---|
口口口口 |----|
48
口③②口 |①-②③|
口口④口 |④-⑤⑥|
口⑥⑤口
①口口①

口口口口
⑨口口⑧
⑪口口⑩ |⑦-⑧⑨|
⑬口⑦⑫ |⑩⑪⑫⑬|
49
①口口① |①---|
口②③口 |--②-|
口口口口 |③---|
口口口口 |----|
50
口口口口 |①-②③|
③口口② |④⑤⑥⑦|
⑤口口④
⑦①①⑥

口⑨⑧口
口⑪⑩口
口⑬⑫口 |⑧⑨⑩⑪|
口⑮⑭口 |⑫⑬⑭⑮|
51
①口口① |①---|
②口口③ |--②-|
②口口③ |③---|
口口口口 |----|
52
口②①口 |①②③④|
口④③口 |⑤⑥⑦⑧|
⑨⑥⑤⑨ |⑨---|
口⑧⑦口 |----|
53
⑥⑤③② |①---|
①口④① |②-③-|
口口口口 |④---|
口口口口 |⑤-⑥-|
54
口口口口 |①-②-|
②①口口 |③-④-|
④③口口 |⑤---|
口⑤口⑥ |⑥---|
55
⑥⑤口口 |①---|
口①①口 |②-③-|
口口③② |④---|
口口④口 |⑤-⑥-|
56
口口口口 |①---|
口①口口 |②-③-|
口口③② |④---|
⑤口④口 |⑤---|
57
⑥⑤口口 |①---|
口①①口 |②-③-|
口口③② |④---|
口口④口 |⑤-⑥-|
58
口口口口 |①-②-|
②①口口 |③-④-|
④③口口 |⑤---|
口⑤口⑥ |⑥---|
59
口口口口 |①---|
口①①口 |②-③-|
⑥⑤③② |④---|
口口④口 |⑤-⑥-|
60
⑩⑨③② |①-②③|
⑫⑪⑤④ |④⑤⑥⑦|
⑭⑬⑦⑥ |⑧-⑨⑩|
①⑧⑧① |⑪⑫⑬⑭|
61
口口②口 |①---|
口口口口 |②-③-|
口口口②
①③口①

⑤口口⑥
口口④⑥
口口④口 |④-⑤-|
⑦口口口 |⑥-⑦-|
62
⑤①口口 |----|
①①口口 |①-②-|
①③④口 |③-④-|
口口②⑥ |⑤-⑥-|
63
口②口① |①---|
②②口口 |②-③-|
②口口口
①③口口

⑤口④口
口口④④
口口④口 |④-⑤-|
⑦口⑥⑥ |⑥-⑦-|
64
口②口② |①---|
口③③口 |②---|
口①口① |③---|
口④④口 |④---|
65
口口②口 |①---|
口口口口 |②-③-|
③口口②
①口口①

⑤口口⑥
口口④⑥
口口④口 |④-⑤-|
⑦口口口 |⑥-⑦-|
66
⑤①口口 |----|
①①口口 |①-②-|
①③④口 |③-④-|
口口②⑥ |⑤-⑥-|
67
口②③① |①---|
②②③③ |②---|
②口③口 |③---|
①口④④ |④---|
68
③④⑤④ |①-②③|
⑥⑥⑥⑥ |④-⑤-|
②①⑦① |⑥-⑦-|
⑧⑧⑧⑧ |⑧---|
69
口④③口 |①-②-|
口⑥⑤口 |③-④-|
①②口① |⑤-⑥-|
⑧口口⑦ |⑦-⑧-|
70
口口口口 |①-②-|
④⑥⑤③ |③-④-|
②口口① |⑤---|
口⑥⑤口 |⑥---|
71
口④③口 |①-②-|
口⑥⑤口 |③-④-|
①②口① |⑤-⑥-|
⑧口口⑦ |⑦-⑧-|
72
口口口口 |①-②-|
④⑤⑤③ |③-④-|
②口⑥① |⑤-⑥-|
口⑦⑦⑧ |⑦-⑧-|
73
口④③口 |①-②-|
口⑥⑤口 |③-④-|
①②口① |⑤-⑥-|
⑧口口⑦ |⑦-⑧-|
74
口口口口 |①-②-|
④⑥⑤③ |③-④-|
②口口① |⑤---|
口⑥⑤口 |⑥---|
75
口④③④ |①-②-|
⑤⑥⑤口 |③-④-|
①②①② |⑤-⑥-|
⑧⑦⑧⑦ |⑦-⑧-|
76
④口口③ |--①-|
口⑤⑤口 |②-③-|
②口口① |④---|
口口口口 |⑤---|

不確定度: 0

最終更新:2014年08月01日 02:12