オレンジ


EXTREME

Level: 8
BPM: 182
Notes: 517

1
口口口口 |----|
口口口口 |----|
口口口口 |----|
口口口口 |----|
2
口口口口 |----|
口口口口 |①---|
③①③口 |②---|
口②口口 |③---|
3
口④①④ |①---|
口口②口 |②---|
口③口③ |③---|
口口口口 |④---|
4
口口口口 |----|
口①口口 |----|
口口口口 |----|
口②口口 |①-②-|
5
①口①② |①---|
③口②④ |②---|
口③④② |③---|
③口口④ |④---|
6
①口口口 |①---|
口①②口 |----|
①口口口 |②---|
口口③口 |③---|
7
口①口① |①-②-|
口③口口 |----|
口②口② |③---|
口④口口 |④---|
8
①口①口 |①-②-|
口口③口 |----|
②口②口 |----|
口口口口 |③---|
9
口口③口 |①---|
口②口② |②---|
口口①口 |③---|
口口④口 |④---|
10
口口口口 |①---|
①口①口 |②---|
④②④口 |③---|
口③口口 |④---|
11
口④①④ |①---|
口口②口 |②---|
口③口③ |③---|
口口口口 |④---|
12
口口口口 |----|
口①口口 |----|
口口口口 |----|
口②口口 |①-②-|
13
①口①② |①---|
③口②④ |②---|
口③④② |③---|
③口口④ |④---|
14
①口口口 |①---|
口①②口 |----|
①口口口 |②---|
口口③口 |③---|
15
口①口① |①-②-|
③④③口 |--③-|
口②口② |④---|
口⑤口口 |⑤---|
16
①口①口 |①-②-|
⑤③⑤口 |--③-|
②④②口 |④---|
口口口口 |⑤---|
17
①②①口 |①---|
口口③口 |----|
口口口口 |----|
口口口口 |②-③-|
18
口口口口 |①---|
口口口口 |②---|
口口④① |③---|
③②③口 |④---|
19
口口口口 |①---|
口口口口 |----|
口①口① |----|
②口口口 |②---|
20
口口口口 |①---|
④口口口 |②---|
②口口① |③---|
口口口③ |④---|
21
②口口① |①---|
口口口口 |----|
口口口口 |②---|
口口口口 |----|
22
口口口口 |①---|
②口口① |②---|
④口口③ |③---|
口口口口 |④---|
23
口①①口 |①---|
口口口口 |②-③-|
口口③③
②口口口

口口⑦⑦
⑤⑤口口
口⑥口口 |④-⑤-|
口口④口 |⑥-⑦-|
24
口口口口 |①---|
口④①口 |②-③-|
口口②② |--④-|
⑤⑤③口 |--⑤-|
25
⑥⑥口口 |----|
口口④④ |①-②-|
②②⑤口 |③-④-|
口口③① |⑤-⑥-|
26
口口口口 |①---|
口①④口 |②-③-|
②②口口 |--④-|
口③⑤⑤ |--⑤-|
27
口口⑥⑥ |----|
④④口口 |①-②-|
口⑤②② |③-④-|
①③口口 |⑤-⑥-|
28
口口口口 |①---|
口口①口 |②---|
①⑤②口 |③---|
②④③③ |④-⑤-|
29
②口口口 |①---|
④①口③ |②---|
②口口口 |③---|
④口口③ |④---|
30
②⑤口① |①---|
口③②③ |②-③-|
④⑥④① |④---|
口口⑥⑤ |⑤-⑥-|
31
口口⑥⑥ |----|
④④口口 |①-②-|
口⑤②② |③-④-|
①③口口 |⑤-⑥-|
32
口口口口 |①---|
口④①口 |②-③-|
口口②② |--④-|
⑤⑤③口 |--⑤-|
33
⑥⑥口口 |----|
口口④④ |①-②-|
②②⑤口 |③-④-|
口口③① |⑤-⑥-|
34
口口②② |①---|
口①④口 |②---|
②②口口 |--③-|
口③⑤⑤ |④-⑤-|
35
口口⑥⑥ |----|
④④口口 |①-②-|
口⑤②② |③-④-|
①③口口 |⑤-⑥-|
36
口口口口 |①---|
口口①口 |②---|
①⑤②口 |③---|
②④③③ |④-⑤-|
37
②口口口 |①---|
④①口③ |②---|
②口口口 |③---|
④口口③ |④---|
38
②①②① |①---|
口③⑤③ |②-③-|
④①④① |④---|
口⑥口口 |⑤-⑥-|
39
③⑤③⑤ |①---|
①口口口 |②-③-|
口②④口 |--④-|
口口①口 |⑤---|
40
口口口口 |----|
口口口口 |①---|
口②口口 |②---|
①③①① |③---|
41
口口口口 |①---|
④②④④ |②-③-|
①③①① |--④-|
口⑤口口 |⑤---|
42
口口口口 |----|
口②口口 |①---|
口口①口 |②---|
口口③口 |③---|
43
⑤③⑤③ |①---|
口口口① |②-③-|
口④②口 |--④-|
口①口口 |⑤---|
44
口口口口 |----|
口口口口 |①---|
口口②口 |②---|
①①③① |③---|
45
口口口口 |①---|
①①口① |----|
口口口口
口口口口

口口口口
②口②口
口口口口 |----|
口口口口 |--②-|
46
口口口口 |①---|
口②口② |②-③-|
口④①④ |--④-|
③⑤③口 |⑤---|
47
口口口口 |①---|
①口①③ |----|
②②②② |②---|
③口口口 |--③-|
48
⑥口口⑥ |①-②-|
②③①口 |③-④-|
⑤④④⑤ |--⑤-|
口①③② |⑥---|
49
⑦口口⑦ |①---|
①④③① |②-③-|
⑦②⑤⑦ |④-⑤-|
①⑥⑥① |⑥-⑦-|
50
口口口口 |①---|
①口②① |--②-|
口口口口
口口口口

口口口口
⑥⑤口⑥
口③④口 |③-④-|
⑥口口⑥ |⑤-⑥-|
51
口②口口 |①---|
口⑥③口 |--②-|
①④⑥① |③-④-|
口⑥⑤口 |⑤-⑥-|
52
③⑤⑤③ |--①-|
④⑦⑦④ |②-③-|
①⑥⑥① |④-⑤-|
②口口② |⑥-⑦-|
53
⑥口口⑥ |①---|
口⑤口口 |--②-|
⑥口④⑥ |③-④-|
②①①③ |⑤-⑥-|
54
口口口口 |①---|
①口②① |--②-|
口口口口
口口口口

口口口口
⑥⑤口⑥
口③④口 |③-④-|
⑥口口⑥ |⑤-⑥-|
55
口②口口 |①---|
口⑥③口 |--②-|
①④⑥① |③-④-|
口⑥⑤口 |⑤-⑥-|
56
③⑤⑤③ |--①-|
④⑦⑦④ |②-③-|
①⑥⑥① |④-⑤-|
②口口② |⑥-⑦-|
57
口口口口 |①---|
口口口口 |--②-|
①口口①
②①①口

⑥口口⑥
口⑤口口
⑥口④⑥ |③-④-|
口口口③ |⑤-⑥-|
58
口口口口 |①---|
①口②① |--②-|
口口口口
口口口口

口口口口
⑥口口⑥
口③④口 |③-④-|
⑥⑤口⑥ |⑤-⑥-|
59
口口②口 |①---|
口③⑥口 |--②-|
①⑥④① |③-④-|
口⑤⑥口 |⑤-⑥-|
60
③⑤⑤③ |--①-|
④⑦⑦④ |②-③-|
①⑥⑥① |④-⑤-|
②口口② |⑥-⑦-|
61
②⑤口口 |①---|
③口⑥② |--②-|
④口口③ |③-④-|
口①①④ |⑤-⑥-|
62
口口口口 |①---|
口口口② |②---|
口①②口
口②口口

口口③口
口③④口
③⑤口口 |③---|
口口口口 |④-⑤-|
63
口口口口 |①---|
③②口③ |--②-|
②口②口 |③---|
③②①③ |----|
64
口口口口 |----|
口口口口 |----|
口②口口 |----|
口口①口 |①-②-|
65
③④②③ |①---|
口②①② |--②-|
③口②③ |③---|
口口④口 |--④-|
66
④⑥⑥④ |①---|
⑤口①⑤ |--②-|
②①口② |③-④-|
③口口③ |⑤-⑥-|
67
口口口口 |①---|
口②②口 |--②-|
口①①口 |③---|
口③③口 |----|

不確定度: 0

最終更新:2014年08月01日 01:36