NO WAVE≒斜陽”
0.8秒と衝撃。

EXTREME

Level: 8
BPM: 164
Notes: 628

1
口口口口 |----|
口口口口 |----|
口口口口 |----|
口口口口 |----|
2
口口口口 |①---|
①口②② |②---|
①⑤②口 |③--④|
③口口④ |--⑤-|
3
①①③口 |--①-|
①口②口 |②-③-|
④④⑥口 |--④-|
口④⑤口 |⑤-⑥-|
4
口①口③ |--①-|
①①口② |②-③-|
口⑥⑦口 |④-⑤-|
④口口⑤ |⑥⑦--|
5
口①口③ |--①-|
①①②口 |②-③-|
口④口⑥ |--④-|
④④⑤口 |⑤-⑥-|
6
口口②口 |--①-|
①①口③ |②-③-|
①⑥⑦口 |④-⑤-|
④口口⑤ |⑥⑦--|
7
①①口③ |--①-|
④①口② |②-③-|
④④⑥口 |--④-|
口口⑤口 |⑤-⑥-|
8
①①口③ |--①-|
口①口② |②-③-|
口⑥⑦口 |④-⑤-|
④口口⑤ |⑥⑦--|
9
口①口③ |--①-|
①①②口 |②-③-|
④④口⑥ |--④-|
口④⑤口 |⑤-⑥-|
10
④口口② |①---|
口④②口 |②---|
口口口口 |③---|
③口口① |④---|
11
口口①口 |①-②-|
⑨⑥⑧⑦ |③-④⑤|
②④口⑤ |-⑥⑦-|
⑧口⑨③ |⑧-⑨-|
12
②口口口 |①-②-|
口口口⑤ |③-④⑤|
口④①口
口口口③

⑨口⑧⑦
⑧⑥⑨口
口口口口 |-⑥⑦-|
口口口口 |⑧-⑨-|
13
口口口口 |①-②-|
口口口口 |③-④⑤|
口④⑤①
口②口③

口口口口
⑨⑥⑦⑧
⑧口口⑨ |-⑥⑦-|
口口口口 |⑧-⑨-|
14
②⑨⑦⑧ |①-②-|
口口⑤口 |③-④⑤|
⑥⑧③⑨ |-⑥⑦-|
④口①口 |⑧-⑨-|
15
口口口口 |①-②-|
②口口⑤ |③-④⑤|
口口③口
口④①口

口口口⑦
⑨口⑧口
口⑥口口 |-⑥⑦-|
⑧口⑨口 |⑧-⑨-|
16
②口口口 |①-②-|
口口口口 |③-④⑤|
口④①⑤
口口口③

⑨口⑧口
⑧⑥⑨⑦
口口口口 |-⑥⑦-|
口口口口 |⑧-⑨-|
17
口②口⑦ |①-②-|
⑥⑨⑧⑤ |③-④⑤|
④⑧⑨③ |-⑥⑦-|
口口口① |⑧-⑨-|
18
口口口口 |①--②|
③口口② |--③-|
口口口①
②①③口

口口④口
口口口口
④⑤口⑥ |④--⑤|
口⑥口⑤ |--⑥-|
19
①①③口 |--①-|
①口②口 |②-③-|
④④⑥口 |--④-|
口④⑤口 |⑤-⑥-|
20
口①口③ |--①-|
①①口② |②-③-|
口⑥⑦口 |④-⑤-|
④口口⑤ |⑥⑦--|
21
口①口③ |--①-|
①①②口 |②-③-|
口④口⑥ |--④-|
④④⑤口 |⑤-⑥-|
22
口口②口 |--①-|
①①口③ |②-③-|
①⑥⑦口 |④-⑤-|
④口口⑤ |⑥⑦--|
23
①①口③ |--①-|
④①口② |②-③-|
④④⑥口 |--④-|
口口⑤口 |⑤-⑥-|
24
①①口③ |--①-|
口①口② |②-③-|
口⑥⑦口 |④-⑤-|
④口口⑤ |⑥⑦--|
25
口①口③ |--①-|
①①②口 |②-③-|
④④口⑥ |--④-|
口④⑤口 |⑤-⑥-|
26
②口口④ |①---|
口②④口 |②---|
口口口口 |③---|
①口口③ |④---|
27
口口①口 |①-②-|
⑨⑥⑧⑦ |③-④⑤|
②④口⑤ |-⑥⑦-|
⑧口⑨③ |⑧-⑨-|
28
②口口口 |①-②-|
口口口⑤ |③-④⑤|
口④①口
口口口③

⑨口⑧⑦
⑧⑥⑨口
口口口口 |-⑥⑦-|
口口口口 |⑧-⑨-|
29
口口口口 |①-②-|
口口口口 |③-④⑤|
口④⑤①
口②口③

口口口口
⑨⑥⑦⑧
⑧口口⑨ |-⑥⑦-|
口口口口 |⑧-⑨-|
30
②⑨⑦⑧ |①-②-|
口口⑤口 |③-④⑤|
⑥⑧③⑨ |-⑥⑦-|
④口①口 |⑧-⑨-|
31
口口口口 |①-②-|
②口口⑤ |③-④⑤|
口口③口
口④①口

口口口⑦
⑨口⑧口
口⑥口口 |-⑥⑦-|
⑧口⑨口 |⑧-⑨-|
32
②口口口 |①-②-|
口口口口 |③-④⑤|
口④①⑤
口口口③

⑨口⑧口
⑧⑥⑨⑦
口口口口 |-⑥⑦-|
口口口口 |⑧-⑨-|
33
口②口⑦ |①-②-|
⑥⑨⑧⑤ |③-④⑤|
④⑧⑨③ |-⑥⑦-|
口口口① |⑧-⑨-|
34
口口口口 |①--②|
③口口② |--③-|
口口口①
②①③口

口口④口
口口口口
④⑤口⑥ |④--⑤|
口⑥口⑤ |--⑥-|
35
①①口② |①--②|
口③④④ |③-④-|
口口口口
口口口口

口⑦口口
口口口口
⑤口⑥⑥ |⑤-⑥-|
⑤口⑧⑧ |⑦-⑧-|
36
⑦口口② |①--②|
①①④④ |③-④-|
③口⑥⑥ |⑤-⑥-|
⑤⑤⑧⑧ |⑦-⑧-|
37
口①口② |①--②|
③①④④ |③-④-|
口口口口
口口口口

口口口口
口⑦口口
⑤⑤⑥⑥ |⑤-⑥-|
口口⑧⑧ |⑦-⑧-|
38
口③口口 |①---|
③口口口 |②---|
②②④口 |③--④|
口①口⑤ |--⑤-|
39
口口口② |①--②|
⑦①④④ |③-④-|
③①⑥⑥ |⑤-⑥-|
⑤⑤⑧⑧ |⑦-⑧-|
40
①①口② |①--②|
口③④④ |③-④-|
口口口口
口口口口

口⑦口口
⑤口口口
⑤口⑥⑥ |⑤-⑥-|
口口⑧⑧ |⑦-⑧-|
41
口⑧⑦口 |①-②③|
口口口⑥ |--④-|
口③④⑤ |⑤⑥-⑦|
②①口口 |--⑧-|
42
口口口② |①---|
①④③⑤ |----|
①⑦⑥⑧ |②③④⑤|
①口⑨口 |⑥⑦⑧⑨|
43
①①①口 |①--②|
②③③口 |--③-|
⑥⑤④口 |--④-|
口口口口 |⑤-⑥-|
44
口⑥②① |①--②|
口⑤③① |--③-|
口④③① |--④-|
口口口口 |⑤-⑥-|
45
口口口口 |①--②|
口④⑤⑥ |--③-|
口③③② |--④-|
口①①① |⑤-⑥-|
46
口口口口 |①--②|
①③④口 |--③-|
①③⑤口 |--④-|
①②⑥口 |⑤-⑥-|
47
①①①① |①--②|
②③③口 |--③-|
⑥⑤④口 |--④-|
口口口口 |⑤-⑥-|
48
口⑥②① |①--②|
口⑤③① |--③-|
口④③① |--④-|
口口口① |⑤-⑥-|
49
口口口口 |①--②|
口④⑤⑥ |--③-|
口③③② |--④-|
①①①① |⑤-⑥-|
50
口③口③ |①--②|
②口口口 |--③-|
口④⑤口 |----|
①⑥⑦口 |④⑤⑥⑦|
51
①口②④ |①--②|
口③⑥口 |--③-|
①口口④ |④--⑤|
⑤口口口 |--⑥-|
52
口①口口 |①--②|
口③口② |--③-|
口①口口
口口口口

口口口口
口口口口
口⑤口④ |④---|
⑤口④口 |⑤---|
53
口口口③ |①--②|
④口⑤① |--③-|
②口口口 |④---|
④口⑤① |⑤---|
54
①①④④ |①---|
口①④② |②---|
③口②② |③---|
③③口口 |④---|
55
①②⑥⑦ |①②③④|
③④⑧⑨ |⑤---|
⑤口⑩口 |⑥⑦⑧⑨|
口口口口 |⑩---|
56
口口口口 |①②③④|
①②⑥⑦ |⑤---|
③④⑧⑨ |⑥⑦⑧⑨|
⑤口⑩口 |⑩---|
57
①②⑦⑧ |①②③-|
③口⑨口 |④⑤⑥-|
④⑤⑩⑪ |⑦⑧⑨-|
⑥口⑫口 |⑩⑪⑫-|
58
④④④④ |①--②|
②③③口 |--③-|
①②口口 |④---|
口①口口 |----|
59
口口口口 |①-②-|
口②③④ |③-④-|
①口口⑤ |⑤-⑥-|
口口⑦⑥ |⑦---|
60
口②③④ |①-②-|
①口口⑤ |③-④-|
口⑦⑥口 |⑤-⑥-|
口口口口 |⑦---|
61
口口口口 |①-②-|
口⑤④③ |③-④-|
⑥口口② |⑤-⑥-|
口⑦①口 |⑦---|
62
口口⑤口 |①-②-|
口⑥口口 |③-④-|
⑦①口④ |--⑤-|
口口②③ |⑥-⑦-|
63
口口⑥⑦ |①-②-|
口⑤④口 |③-④-|
口口口③ |⑤-⑥-|
口①②口 |⑦---|
64
口口口口 |①-②-|
口⑥口① |③-④-|
⑤口⑦② |⑤-⑥-|
口④③口 |⑦---|
65
①口口① |①---|
口②②口 |----|
口口口口 |②---|
口口口口 |----|
66
口④⑤口 |①--②|
③口口⑥ |--③-|
①②口① |④--⑤|
口口口口 |--⑥-|

不確定度: 0

最終更新:2014年08月01日 00:49