GO
オワリカラ

EXTREME

Level: 8
BPM: 152
Notes: 665

1
口口口口 |----|
口口口口 |----|
口口口口 |----|
口口口口 |----|
2
①口口口 |①---|
口②③④ |②---|
口口口口 |③---|
口口口口 |④---|
3
口口③口 |①---|
①口口口 |②---|
口②口④ |③---|
口口口口 |④---|
4
口口口① |①---|
④③②口 |②---|
口口口口 |③---|
口口口口 |④---|
5
口③口口 |①---|
④口口① |②---|
口口②口 |③---|
口口口口 |④---|
6
①口口口 |①-②③|
⑥②③④ |④-⑤-|
⑤⑨⑧⑦ |⑥-⑦⑧|
⑩口口口 |⑨-⑩-|
7
口⑨⑨① |①-②③|
④③②口 |④-⑤-|
⑦⑦⑦⑤ |⑥-⑦-|
⑧⑥⑥⑥ |⑧-⑨-|
8
口口口① |①-②③|
④③②⑥ |④-⑤-|
⑦⑧⑨⑤ |⑥-⑦⑧|
口口口⑩ |⑨-⑩-|
9
①⑨⑨口 |①-②③|
口②③④ |④-⑤-|
⑤⑦⑦⑦ |⑥-⑦-|
⑥⑥⑥⑧ |⑧-⑨-|
10
①口口口 |①-②③|
⑥②③④ |④-⑤-|
⑤⑨⑧⑦ |⑥-⑦⑧|
⑩口口口 |⑨-⑩-|
11
口⑨⑨① |①-②③|
④③②口 |④-⑤-|
⑦⑦⑦⑤ |⑥-⑦-|
⑧⑥⑥⑥ |⑧-⑨-|
12
口口口① |①-②③|
④③②⑥ |④-⑤-|
⑦⑧⑨⑤ |⑥-⑦⑧|
口口口⑩ |⑨-⑩-|
13
①⑨口口 |①-②③|
⑤②③④ |④-⑤-|
口⑦⑦⑦ |⑥-⑦-|
⑥⑥⑥⑧ |⑧-⑨-|
14
①口⑤⑧ |①--②|
⑦⑥②③ |③-④-|
①④口⑧ |⑤--⑥|
口口口口 |⑦-⑧-|
15
①①口⑧ |①-②-|
口⑤②② |③-④-|
③③⑥口 |--⑤⑥|
口⑦④④ |⑦-⑧-|
16
①口⑤⑧ |①--②|
⑦⑥②③ |③-④-|
①④口⑧ |⑤--⑥|
口口口口 |⑦-⑧-|
17
①①口⑧ |①-②-|
口⑤②② |③-④-|
③③⑥口 |--⑤⑥|
口⑦④④ |⑦-⑧-|
18
①①①口 |①---|
①④②③ |②---|
①②④③ |③---|
口③③③ |④---|
19
口①②③ |①---|
①口②③ |②---|
②②口口 |③---|
③③口口 |----|
20
⑦⑧⑥口 |①-②-|
⑧⑤口④ |③-④-|
⑥口③② |⑤-⑥-|
口④②① |⑦-⑧-|
21
口口口② |①-②-|
口口①④ |③-④-|
口①③口 |⑤---|
②④口⑤ |----|
22
①①①口 |①---|
①④②③ |②---|
①②④③ |③---|
口③③③ |④---|
23
口①②③ |①---|
①口②③ |②---|
②②口口 |③---|
③③口口 |----|
24
口口口口 |①-②-|
口口口④ |③-④-|
口口③②
口④②①

⑦⑧⑥口
⑧⑤口口
⑥口口⑨ |⑤-⑥-|
口口口口 |⑦-⑧⑨|
25
口口口③ |①-②-|
口口②④ |③-④-|
口②①口 |⑤---|
③④口⑤ |----|
26
①口口口 |①-②③|
⑥②③④ |④-⑤-|
⑤⑨⑧⑦ |⑥-⑦⑧|
⑩口口口 |⑨-⑩-|
27
口⑨⑨① |①-②③|
④③②口 |④-⑤-|
⑦⑦⑦⑤ |⑥-⑦-|
⑧⑥⑥⑥ |⑧-⑨-|
28
①口口口 |①-②③|
⑥②③④ |④-⑤-|
⑤⑨⑧⑦ |⑥-⑦⑧|
⑩口口口 |⑨-⑩-|
29
口⑨⑨① |①-②③|
④③②口 |④-⑤-|
⑦⑦⑦⑤ |⑥-⑦-|
⑧⑥⑥⑥ |⑧-⑨-|
30
口口口① |①-②③|
④③②⑥ |④-⑤-|
⑦⑧⑨⑤ |⑥-⑦⑧|
口口口⑩ |⑨-⑩-|
31
①⑨⑨⑨ |①-②③|
⑧②③④ |④-⑤-|
⑤⑦⑦⑦ |⑥-⑦-|
⑥⑥⑥口 |⑧-⑨-|
32
②口口口 |①---|
口③口① |②-③-|
口口④⑥ |④---|
口口⑤口 |⑤-⑥-|
33
口口口③ |--①-|
口⑤④口 |②-③-|
口②⑤口 |④---|
①口口口 |⑤---|
34
③③③口 |①---|
③④②① |②---|
③②④① |③---|
口①①① |④---|
35
口口③③ |①---|
口口②② |②---|
③②口① |③---|
③②①口 |----|
36
①②④口 |①-②-|
②③口⑥ |③-④-|
④口⑤⑧ |⑤-⑥-|
口⑥⑧⑦ |⑦-⑧-|
37
⑤口④② |①-②-|
口③①口 |③-④-|
④①口口 |⑤---|
②口口口 |----|
38
③③③口 |①---|
③④②① |②---|
③②④① |③---|
口①①① |④---|
39
口口③③ |①---|
口口②② |②---|
③②口① |③---|
③②①口 |----|
40
①②④口 |①-②-|
②③口⑥ |③-④-|
④口⑤⑧ |⑤-⑥-|
口⑥⑧⑦ |⑦-⑧-|
41
①口②口 |①---|
口口口③ |②---|
②口③口 |③---|
口③口④ |④---|
42
①②①② |①-②-|
⑤⑤⑤⑤ |③-④-|
③④③④ |⑤---|
⑥⑥⑥⑥ |⑥---|
43
①③①③ |①-②-|
⑦⑤⑤口 |③-④-|
④②④② |⑤-⑥-|
⑥口口⑧ |⑦-⑧-|
44
②①②① |①-②-|
⑤⑤⑤⑤ |③-④-|
④③④③ |⑤---|
⑥⑥⑥⑥ |⑥---|
45
③①③① |①-②-|
口⑤⑤⑦ |③-④-|
②④②④ |⑤-⑥-|
口⑧口⑥ |⑦-⑧-|
46
⑥②口① |①-②-|
④③⑤⑤ |③-④-|
⑤⑤③④ |⑤---|
①口②⑥ |⑥---|
47
口②口① |①-②-|
④③口口 |③-④-|
口口③④
①口②口

口⑧口⑦
口口⑤⑥
⑥⑤口口 |⑤-⑥-|
⑦口⑧口 |⑦-⑧-|
48
①口⑦口 |①-②-|
③②⑥口 |③-④-|
口⑧④⑤ |⑤-⑥-|
口口口① |⑦-⑧-|
49
口口⑦口 |①-②-|
③②⑥口 |③-④-|
口⑧④⑤ |⑤-⑥-|
口①口口 |⑦-⑧-|
50
口口口口 |①---|
口口口口 |----|
②口口② |----|
①口①① |--②-|
51
⑥⑥⑤⑥ |①-②-|
①口口口 |③-④-|
口②④口 |--⑤-|
口③口③ |--⑥-|
52
①口口口 |----|
口口口口 |----|
①口口口 |----|
口口口口 |--①-|
53
口②口② |①-②-|
口①③④ |③-④-|
口⑦⑤口 |⑤---|
⑥口⑥④ |⑥-⑦-|
54
口口口口 |----|
口口口口 |----|
口口口口 |----|
口口口口 |----|
55
口③口③ |①-②-|
①口④口 |③-④-|
口②口口
①口口口

口口口口
口口口⑤
口口⑥口 |⑤---|
⑦口⑦⑤ |⑥-⑦-|
56
口口口口 |----|
口口口口 |----|
口口口口 |----|
口口口口 |----|
57
①口②口 |----|
口①口② |----|
口口①口 |①---|
口口口口 |②---|
58
口口口口 |①---|
②口②口 |②-③-|
②③②口
口①口口

⑤口⑤口
口口口口
口口口口 |--④-|
④⑥④口 |⑤-⑥-|
59
④口④口 |--①-|
①口①口 |②-③-|
①②①口 |--④-|
③⑤③口 |⑤---|
60
口口口口 |①---|
①①①口 |----|
口口口口 |----|
口口口口 |----|
61
⑦口⑦① |①-②-|
⑤口②口 |③-④-|
口⑥④① |⑤-⑥-|
⑤③口③ |--⑦-|
62
口口口口 |----|
口口口口 |----|
口口口口 |----|
口口口口 |----|
63
⑦口口口 |①--②|
⑥⑤②① |③-④-|
⑦④③口 |⑤---|
口⑤口① |⑥-⑦-|
64
口口口口 |----|
口口口口 |----|
口口口口 |----|
口口口口 |----|
65
口①口口 |----|
②口口口 |----|
口②口① |①---|
口口②口 |②---|
66
①口口口 |①-②③|
⑥②③④ |④-⑤-|
⑤⑨⑧⑦ |⑥-⑦⑧|
⑩口口口 |⑨-⑩-|
67
口⑨⑨① |①-②③|
④③②口 |④-⑤-|
⑦⑦⑦⑤ |⑥-⑦-|
⑧⑥⑥⑥ |⑧-⑨-|
68
口口口① |①-②③|
④③②⑥ |④-⑤-|
⑦⑧⑨⑤ |⑥-⑦⑧|
口口口⑩ |⑨-⑩-|
69
①⑨⑨口 |①-②③|
口②③④ |④-⑤-|
⑤⑦⑦⑦ |⑥-⑦-|
⑥⑥⑥⑧ |⑧-⑨-|
70
口口口口 |①---|
①①①① |----|
口口口口 |----|
口口口口 |----|

不確定度: 0

最終更新:2014年08月01日 00:08