風一揆
風男塾

EXTREME

Level: 7
BPM: 140
Notes: 480

1
口口口口 |----|
口口口口 |----|
口口口口 |----|
口口口口 |----|
2
口口口口 |①---|
口口口口 |----|
口口口② |②---|
口①口口 |----|
3
①口口口 |①---|
口⑥⑦口 |----|
口④⑤口 |②-③-④-|
口②③口 |⑤-⑥-⑦-|
4
①口口② |①---|
①⑤口② |②---|
③口口④ |③---|
③口口④ |④---⑤-|
5
③口口① |①---②-|
③口②① |③---|
口口口口
口口口口

口口口口
口口⑥口
口⑤⑤口 |④---|
口④④口 |⑤---⑥-|
6
①口口② |①---|
①⑤口② |②---|
③口口④ |③---|
③口口④ |④---⑤-|
7
③口口① |①---②-|
③⑥②① |③---|
口⑤⑤口 |④---|
口④④口 |⑤---⑥-|
8
③③①① |①---|
口⑤口口 |②---|
口口口口 |③---|
②②④④ |④---⑤-|
9
③③①① |①---②-|
口⑥②口 |③---|
口⑤⑤口 |④---|
口④④口 |⑤---⑥-|
10
③③①① |①---|
口⑤口口 |②---|
口口口口 |③---|
②②④④ |④---⑤-|
11
③③①① |①---②-|
口口②口 |③---|
口⑤⑤口 |④---|
口④④口 |⑤---|
12
①②③④ |①-②-③-|
口⑦口口 |④---⑤-|
口⑤⑧口 |----⑥-|
口口⑥口 |⑦---⑧-|
13
口②④口 |①---|
②口口④ |②---|
①口口③ |③---|
口①③口 |④---|
14
口口口口 |①-②-③-|
口⑤口口 |④---⑤-|
口⑦⑥口 |----|
①②③④ |⑥---⑦-|
15
口③②口 |①---|
③口口② |②---|
④口口① |③---|
口④①口 |④---|
16
口⑥口⑥ |①-②-③-|
④②③① |④---⑤-|
口⑦⑤口 |----|
口口口口 |⑥---⑦-|
17
②④②④ |①---|
口口口口 |②---|
口口口口 |③---|
③①③① |④---|
18
口口口口 |①-②-③-|
口⑤⑦口 |④---⑤-|
①③②④ |----|
⑥口⑥口 |⑥---⑦-|
19
①③①③ |①---|
口口口口 |②---|
口口口口 |③---|
④②④② |④---|
20
③⑤口口 |----|
口口口口 |①---②-|
①口口口 |③---④-|
②④⑥口 |⑤---⑥-|
21
口口①③ |①---②-|
⑤⑤⑥⑥ |③---④-|
口口④口 |⑤---|
口口口② |⑥---|
22
口口⑤③ |----|
口口口口 |①---②-|
口口口① |③---④-|
口⑥④② |⑤---⑥-|
23
③①口口 |①---②-|
⑥⑥⑤⑤ |③---④-|
口④口口 |⑤---|
②口口口 |⑥---|
24
③⑤口口 |----|
口口口口 |①---②-|
①口口口 |③---④-|
②④⑥口 |⑤---⑥-|
25
口口①③ |①---②-|
⑤⑤⑥⑥ |③---④-|
口口④口 |⑤---|
口口口② |⑥---|
26
口口⑤③ |----|
口口口口 |①---②-|
口口口① |③---④-|
口⑥④② |⑤---⑥-|
27
口①口口 |①---②-|
口口②口 |--③---|
口③口口 |④---|
口口④④ |----|
28
③口①⑤ |----|
口口口口 |①---②-|
②口口④ |③---④-|
口⑥口口 |⑤---⑥-|
29
口⑤⑤口 |①---②-|
口①③口 |③---④-|
⑥④④⑥ |⑤---|
口口②口 |⑥---|
30
①口口⑤ |----|
③口口② |①---②-|
口口口④ |③---④-|
⑥口口口 |⑤---⑥-|
31
⑦④③⑦ |①---②-|
口口⑤口 |③-④-⑤-|
口⑥口口 |⑥---|
口②口① |⑦---|
32
⑤①口③ |----|
口口口口 |①---②-|
④口口② |③---④-|
口口⑥口 |⑤---⑥-|
33
口⑤⑤口 |①---②-|
口③①口 |③---④-|
⑥④④⑥ |⑤---|
口②口口 |⑥---|
34
口口口① |----|
②⑥⑥③ |①---②-|
④口口⑤ |③---④-|
口口口口 |⑤---⑥-|
35
①③③① |①---②-|
口口口口 |--③---|
口口口口 |④---|
②④④② |----|
36
口口口① |----|
④口口口 |①---|
②口口口 |②---|
口口口③ |③---④-|
37
口口①口 |①---|
口⑥口③ |②---|
④②⑤口 |③---④-|
口口口口 |⑤---⑥-|
38
口口①口 |----①-|
⑧⑨⑩口 |②-③-④-|
⑤⑥⑦口 |⑤-⑥-⑦-|
②③④口 |⑧-⑨-⑩-|
39
口口口口 |----|
口⑨⑧⑦ |①-②-③-|
口⑥⑤④ |④-⑤-⑥-|
口③②① |⑦-⑧-⑨-|
40
口口口口 |----|
③口口口 |①---|
②口口口 |②---|
①②③口 |③---|
41
①②③④ |①---|
口⑤口③ |②---|
口口⑤② |③---|
口口口① |④---⑤-|
42
口口口② |----①-|
口③①口 |----|
口①③口 |----②-|
②口口口 |----③-|
43
口①②口 |①---|
口口口口 |----|
口口口口 |②---|
口②①口 |----|
44
口①②口 |①---|
②口口① |②---|
①口口②
口②①口

⑤⑤口口
口③③口
口④④口 |③---|
口口口口 |④---⑤-|
45
口口③③ |①---②-|
口口口口 |③---|
口口口口
②②①①

口⑤口口
口④④口
口④④口 |④---|
口口⑤口 |⑤---|
46
①③④② |①---|
口口口口 |②---|
口口口口 |③---|
②④③① |④---|
47
口口口口 |①---②-|
⑤①①⑤ |③---|
⑤②③⑤ |④---|
④口口④ |⑤---|
48
①①①① |①---|
③③③③ |②---|
口②②口 |③---|
口④④口 |④---|
49
③③③③ |①---②-|
口②口口 |③---|
口口①口
口口口口

口口口口
⑤口口⑤
④⑤⑤④ |④---|
口口口口 |⑤---|
50
①①①① |①---|
口②②口 |②---|
③③③③ |③---|
口④④口 |④---|
51
口①口口 |①---②-|
口口②口 |③---|
③③③③
口口口口

口⑤⑤口
⑤口口⑤
口口⑥口 |④---|
口④④口 |⑤---⑥-|
52
口口口口 |①---|
口①②口 |②---|
口口口口
口口口口

口口口口
口⑤口⑤
口③口口 |③---|
口④④口 |④---⑤-|
53
口口口口 |①---②-|
①口①口 |③---|
③②③②
口口口口

口口⑤口
口口⑥口
口口口口 |④---|
④⑤口④ |⑤---⑥-|
54
③①③口 |①---|
口口口口 |②---|
口口口口 |③---|
②④②④ |④---|
55
口口⑤口 |①---②-|
口③②口 |③---|
①④④① |④---|
口⑤口口 |⑤---|
56
口②④口 |①---|
①①①① |②---|
③③③③ |③---|
口④②口 |④---|
57
口④口③ |①---②-|
口①口口 |③---|
②⑤⑤③ |④---|
口④口口 |⑤---|
58
口④②口 |①---|
①①①① |②---|
③③③③ |③---|
口②④口 |④---|
59
③口口口 |①---②-|
口口①口 |③---|
③口口②
口口口口

口口④口
⑤⑤⑤⑤
口口口口 |④---|
口口④口 |⑤---|

不確定度: 0

最終更新:2014年08月01日 02:40