Holy Snow
Mutsuhiko Izumi

BASIC

Level: 5
BPM: 130-160
Notes: 254

BPM: 160
1
口口口口 |----|
口口口口 |----|
口口口口 |----|
口口口口 |----|
2
口口①① |①---|
口口口口 |----|
口口②③ |②---|
口口口口 |③---|
3
①①口口 |①---|
口口口口 |----|
②③口口 |②---|
口口口口 |③---|
4
口口口口 |①---|
口口②③ |----|
口口口口 |②---|
口口①① |③---|
5
口口口口 |①---|
②③口口 |----|
口口口口 |②---|
①①口口 |③---|
6
口①①口 |①---|
口②②口 |----|
口口口口 |②---|
口口口口 |----|
7
口口口口 |①---|
口口口口 |----|
②口口② |②---|
①口口① |----|
8
口口口口 |①---|
①②③④ |②---|
口口口口 |③---|
口口口口 |④---|
9
④③口口 |①---|
口口口口 |②---|
口口②① |③---|
口口口口 |④---|
10
口口口口 |----|
①口口口 |----|
口口口口 |①---|
口口口口 |----|
11
口口口口 |----|
口①口口 |----|
口口口口 |①---|
口口口口 |----|
12
口口口口 |----|
口口①口 |----|
口口口口 |①---|
口口口口 |----|
13
口口口口 |----|
口口口① |----|
口口口口 |①---|
口口口口 |----|
14
口口口口 |----|
口口口口 |----|
口口口① |①---|
口口口口 |----|
15
口口口口 |----|
口口口口 |----|
口口①口 |①---|
口口口口 |----|
16
口口口口 |----|
口口口口 |----|
口①口口 |①---|
口口口口 |----|
17
口口口口 |----|
口口口口 |----|
①口口口 |①---|
口口口口 |----|
18
口口①① |①---|
口口口口 |----|
口口②③ |②---|
口口口口 |③---|
19
①①口口 |①---|
口口口口 |----|
②③口口 |②---|
口口口口 |③---|
20
口口口口 |①---|
口口②③ |----|
口口口口 |②---|
口口①① |③---|
21
口口口口 |①---|
②③口口 |----|
口口口口 |②---|
①①口口 |③---|
22
④③②① |①--②|
⑤口口口 |--③-|
口口口口 |-④--|
口口口口 |⑤---|
23
口口口口 |①--②|
口口口口 |--③-|
口口口⑤ |-④--|
①②③④ |⑤---|
24
口口口口 |①---|
口①②口 |----|
口口口口 |②---|
口口口口 |----|
25
口口口口 |①---|
口④④口 |②---|
②③③② |③---|
①口口① |④---|
26
口口①① |①---|
口口口口 |----|
口口②③ |②---|
口口口口 |③---|
27
①①口口 |①---|
口口口口 |----|
②③口口 |②---|
口口口口 |③---|
28
口口口口 |①---|
口口②③ |----|
口口口口 |②---|
口口①① |③---|
29
口口口口 |①---|
②③口口 |----|
口口口口 |②---|
①①口口 |③---|
30
④③②① |①--②|
⑤口口口 |--③-|
口口口口 |-④--|
口口口口 |⑤---|
31
口口口口 |①--②|
口口口口 |--③-|
口口口⑤ |-④--|
①②③④ |⑤---|
32
口口口口 |①---|
口①②口 |----|
口口口口 |②---|
口口口口 |----|
33
口口口口 |①---|
口④④口 |②---|
②③③② |③---|
①口口① |④---|
34
①口口① |①---|
口口口口 |----|
口口口口 |----|
口口口口 |----|
35
口口口口 |①---|
口①口口 |----|
口①口口 |----|
口口口口 |----|
36
口口口口 |①---|
口口①口 |----|
口口①口 |----|
口口口口 |----|
37
口口口口 |①---|
①口口口 |----|
①口口口 |----|
口口口口 |----|
38
口口口口 |①---|
口口口① |----|
口口口① |----|
口口口口 |----|
39
口①①口 |①---|
口②②口 |----|
口口口口 |②---|
口口口口 |----|
40
口口口口 |①---|
④口口④ |②---|
③①①③ |③---|
②口口② |④---|
41
①②②① |①---|
口③③口 |②---|
口口口口 |③---|
口口口口 |----|
42
口口口口 |①---|
口口口口 |----|
口口口口 |----|
口①①口 |----|
43
口口口口 |①---|
口口口口 |----|
口①①口 |----|
口口口口 |----|
44
口口口口 |----|
口口口口 |①---|
口口口口 |----|
①口口① |----|
45
口口口口 |①---|
口口口口 |----|
①口口① |----|
口口口口 |----|
46
口口口口 |①---|
①口口① |----|
口口口口 |----|
口口口口 |----|
47
①口口① |①---|
口口口口 |----|
口口口口 |----|
口口口口 |----|
48
口口口口 |①---|
口①①口 |----|
口①①口 |----|
口口口口 |----|
49
口口口口 |①---|
口②②口 |----|
口口口口 |②---|
口①①口 |----|
50
口口①① |①---|
口口口口 |----|
口口②③ |②---|
口口口口 |③---|
51
①①口口 |①---|
口口口口 |----|
②③口口 |②---|
口口口口 |③---|
52
口口口口 |①---|
口口②③ |----|
口口口口 |②---|
口口①① |③---|
53
口口口口 |①---|
②③口口 |----|
口口口口 |②---|
①①口口 |③---|
54
口口口口 |①---|
口口口口 |②---|
①③④② |③---|
口口口口 |④---|
55
①③④② |①---|
口口口口 |②---|
口口口口 |③---|
口口口口 |④---|
56
口口口口 |①---|
①②③④ |②---|
口口口口 |③---|
口口口口 |④---|
57
口口口口 |①---|
口口口口 |②---|
①③④② |③---|
口口口口 |④---|
58
口口①① |①---|
口口口口 |----|
口口②③ |②---|
口口口口 |③---|
59
①①口口 |①---|
口口口口 |----|
②③口口 |②---|
口口口口 |③---|
60
口口口口 |①---|
口口②③ |----|
口口口口 |②---|
口口①① |③---|
61
口口口口 |①---|
②③口口 |----|
口口口口 |②---|
①①口口 |③---|
62
口口①① |①---|
口口②③ |----|
口口②③ |②---|
口口口口 |③---|
63
①①口口 |①---|
②③口口 |----|
②③口口 |②---|
口口口口 |③---|
64
口口①① |①---|
口口②③ |----|
口口②③ |②---|
口口口口 |③---|
65
①①口口 |①---|
②③口口 |----|
②③口口 |②---|
口口口口 |③---|
66
①口口② |①---|
③口口④ |②---|
口口口口 |③---|
口口口口 |④---|
67
口④④口 |①---|
口口口口 |②---|
口③③口 |③---|
①口口② |④---|

BPM: 155
68
①口口② |①---|
口口口口 |②---|
口口口口
口口口口

BPM: 150
口口口口
③口口口
口口口口 |③---|
口口口口

BPM: 140
口口口口
口口口④
口口口口
口口口口 |④---|

BPM: 130
69
口④④口 |①---|
口口口口 |②---|
口③③口 |③---|
①口口② |④---|

BPM: 160
70
口口口口 |----|
口口口口 |----|
口口口口 |----|
口①①口 |--①-|


不确定度: 0

最終更新:2012年12月27日 16:46