milky ice bear
S-C-U

BASIC

Level: 4
BPM: 147
Notes: 261

1
口口口口 |----|
口口口口 |----|
口口口口 |----|
口口口口 |----|
2
口口口口 |①---|
口口口口 |----|
口②②口 |----|
①口口① |--②-|
3
口口口口 |----|
口口口口 |----|
口口口口 |----|
口口口口 |----|
4
口口口口 |①---|
口②口口 |----|
口口②口 |----|
①口口① |--②-|
5
口口口口 |----|
口口口口 |----|
口口口口 |----|
口口口口 |----|
6
口口口口 |①---|
②口口② |----|
①口口① |----|
口口口口 |--②-|
7
口①①口 |----|
口口口口 |----|
口口口口 |----|
口口口口 |--①-|
8
口口口口 |----|
口口口口 |----|
口口口口 |----|
口口口口 |----|
9
口口口口 |----|
口①②口 |①---|
口口口口 |②---|
口③口口 |③---|
10
口口口口 |①---|
口口②③ |②---|
口①①④ |③---|
口口口口 |④---|
11
口口口口 |①---|
③②口口 |②---|
④①①口 |③---|
口口口口 |④---|
12
口口②③ |①---|
口①①④ |②---|
口口口口 |③---|
口口口口 |④---|
13
③②口口 |①---|
④①①口 |②---|
口口口口 |③---|
口口口口 |④---|
14
口口口口 |①---|
口口②③ |②---|
口①①④ |③---|
口口口口 |④---|
15
口口口口 |①---|
③②口口 |②---|
④①①口 |③---|
口口口口 |④---|
16
口口口口 |①---|
口口②口 |②---|
口①①口
口口口口

口口口口
口口口③
口⑤口④ |③---|
口口口口 |④-⑤-|
17
口口口口 |----|
口口口口 |----|
口口口口 |----|
口口口口 |----|
18
口口口口 |①---|
①①口口 |----|
口口口口 |----|
口口口口 |----|
19
口口口口 |①---|
口口①① |----|
口口口口 |----|
口口口口 |----|
20
口口口口 |①---|
①口口口 |----|
口①口口 |----|
口口口口 |----|
21
口口口口 |①---|
口口口① |----|
口口①口 |----|
口口口口 |----|
22
②口口④ |①---|
口口口口 |②---|
①口口③ |③---|
口口口口 |④---|
23
口②④口 |①---|
口口口口 |②---|
口①③口 |③---|
口口口口 |④---|
24
②口口④ |①---|
口口口口 |②---|
①口口③ |③---|
口口口口 |④---|
25
口口口口 |①--②|
口②②口 |--③-|
③①①③
口口口口

口口口口
④口口④
口⑤⑤口 |-④--|
口口口口 |⑤---|
26
口②④口 |①---|
口①③口 |②---|
口口口口 |③---|
口口口口 |④---|
27
口口口口 |①---|
口①②口 |②---|
口③④口 |③---|
口口口口 |④---|
28
口口口口 |①---|
口口口口 |----|
②口口② |②---|
①口口① |----|
29
口①②口 |①---|
口口口口 |②---|
口③③口 |③---|
口④④口 |④---|
30
口②④口 |①---|
口①③口 |②---|
口口口口 |③---|
口口口口 |④---|
31
口口口口 |①---|
口①②口 |②---|
口③④口 |③---|
口口口口 |④---|
32
口口口口 |①---|
口口口口 |----|
②口口② |②---|
①口口① |----|
33
口口口口 |①---|
口②③口 |②---|
口口口口 |③---|
口①④口 |④---|
34
②②口口 |①---|
口口口口 |----|
①口口口 |②---|
口口口口 |----|
35
口口口口 |①---|
口口口口 |②---|
口①②口 |③---|
口③④口 |④---|
36
口口②② |①---|
口口口口 |----|
口口口① |②---|
口口口口 |----|
37
口口口口 |①---|
口③④口 |②---|
口①②口 |③---|
口口口口 |④---|
38
②②口口 |①---|
口口口口 |----|
①口口口 |②---|
口口口口 |----|
39
口口口口 |①---|
口①②口 |②---|
口③④口 |③---|
口口口口 |④---|
40
口口口口 |①---|
②口口② |----|
口口口口 |②---|
①口口① |----|
41
口口口口 |①---|
②口口② |----|
口口口口 |②---|
①口口① |----|
42
④口口④ |①---|
口③③口 |②---|
口②②口 |③---|
口①①口 |④---|
43
口口口口 |----|
口口口口 |----|
口口口口 |----|
口口口口 |----|
44
口①①口 |①---|
④②②④ |②---|
口口口口 |③---|
口③③口 |--④-|
45
口③口口 |----|
口口②口 |----|
口①口口 |①--②|
口口口口 |--③-|
46
口口口口 |----|
①口口① |----|
口口口口 |①---|
口口口口 |----|
47
⑤口口⑤ |①-②-|
口③④口 |③-④-|
口①②口 |--⑤-|
口口口口 |----|
48
口口口口 |①---|
口口口口 |----|
②①①② |②---|
口口口口 |----|
49
②①①② |①---|
口口口口 |----|
口口口口 |②---|
口口口口 |----|
50
口①口口 |①---|
口口②口 |②---|
④口口④ |③---|
口③③口 |--④-|
51
口口口口 |----|
口口口口 |----|
口口口口 |----|
口口口口 |----|
52
口①①口 |①---|
④②②④ |②---|
口口口口 |③---|
口③③口 |--④-|
53
口③口口 |----|
口口②口 |----|
口①口口 |①--②|
口口口口 |--③-|
54
口口口口 |----|
①口口① |----|
口口口口 |①---|
口口口口 |----|
55
⑤口口⑤ |①-②-|
口③④口 |③-④-|
口①②口 |--⑤-|
口口口口 |----|
56
口口口口 |①---|
口口口口 |----|
②①①② |②---|
口口口口 |----|
57
②①①② |①---|
口口口口 |----|
口口口口 |②---|
口口口口 |----|
58
口①口口 |①---|
口口②口 |②---|
④口口④ |③---|
口③③口 |--④-|
59
口口口口 |----|
口①②口 |①---|
口口口口 |②---|
口③口口 |③---|
60
口口口口 |①---|
口口②③ |②---|
口①①④ |③---|
口口口口 |④---|
61
口口口口 |①---|
③②口口 |②---|
④①①口 |③---|
口口口口 |④---|
62
口口②③ |①---|
口①①④ |②---|
口口口口 |③---|
口口口口 |④---|
63
③②口口 |①---|
④①①口 |②---|
口口口口 |③---|
口口口口 |④---|
64
口口口口 |①---|
口口②③ |②---|
口①①④ |③---|
口口口口 |④---|
65
口口口口 |①---|
③②口口 |②---|
④①①口 |③---|
口口口口 |④---|
66
口口口口 |①---|
口口②口 |②---|
口①①口
口口口口

口口口口
口口口③
口⑤口④ |③---|
口口口口 |④-⑤-|
67
口口口口 |----|
口口口口 |----|
口口口口 |----|
口①①口 |--①-|


不确定度: 0

最終更新:2012年12月27日 16:44