milky ice bear
S-C-U

ADVANCED

Level: 6
BPM: 147
Notes: 553

1
口口口口 |----|
口口口口 |----|
口口口口 |----|
口口口口 |----|
2
⑥④口⑥ |--①-|
口口②口 |②-③-|
口口⑤口 |④---|
口①③口 |⑤-⑥-|
3
口口口口 |--①-|
①口口口 |②-③-|
口④口② |--④-|
③口口口 |----|
4
口口④口 |①-②-|
口③口口 |③-④-|
口口②口
口①①口

口口口口
口口口口
口⑤⑤口 |----|
口口口口 |--⑤-|
5
①口口① |----|
口②口口 |--①-|
口口③口 |--②-|
口口口口 |--③-|
6
口口口口 |①---|
口②口口 |--②-|
口④④口 |--③-|
①③口① |--④-|
7
口口口口 |----|
口①①口 |----|
口口口口 |----|
口口口口 |--①-|
8
口口口口 |----|
口口口口 |----|
口口口口 |----|
口口口口 |----|
9
口③④口 |--①-|
口⑦口口 |②-③④|
①⑤⑥② |-⑤⑥-|
口⑧口口 |⑦-⑧-|
10
②口⑤① |①-②-|
④口口③ |③-④⑤|
⑨口⑥⑧ |-⑥⑦-|
口⑦口口 |⑧-⑨-|
11
②口口① |①-②-|
④口⑤③ |③-④⑤|
⑨⑦口⑧ |-⑥⑦-|
口口⑥口 |⑧-⑨-|
12
②口⑤① |①-②-|
④口口③ |③-④⑤|
⑨口⑥⑧ |-⑥⑦-|
口⑦口口 |⑧-⑨-|
13
②口口① |①-②-|
④口⑤③ |③-④⑤|
⑨⑦口⑧ |-⑥⑦-|
口口⑥口 |⑧-⑨-|
14
②口⑤① |①-②-|
④口口③ |③-④⑤|
⑨口⑥⑧ |-⑥⑦-|
口⑦口口 |⑧-⑨-|
15
②口口① |①-②-|
④口⑤③ |③-④⑤|
⑨⑦口⑧ |-⑥⑦-|
口口⑥口 |⑧-⑨-|
16
②口⑤① |①-②-|
④口口③ |③-④⑤|
⑧口⑥⑧ |-⑥⑦-|
⑨⑦口⑨ |⑧-⑨-|
17
口①口口 |--①-|
口④②口 |②-③-|
⑥口⑦口 |④-⑤-|
口③⑤口 |⑥-⑦-|
18
口①口① |①--②|
④②④② |--③-|
⑤③⑤③ |④--⑤|
⑥口⑥口 |--⑥-|
19
⑥口⑥口 |①--②|
⑤③⑤③ |--③-|
④②④② |④--⑤|
口①口① |--⑥-|
20
口①口① |①--②|
④②④② |--③-|
⑤③⑤③ |④--⑤|
⑥口⑥口 |--⑥-|
21
⑥口⑥口 |①--②|
⑤③⑤③ |--③-|
④②④② |④--⑤|
口①口① |--⑥-|
22
⑥③口口 |①--②|
⑤②⑥③ |--③-|
④①⑤② |④--⑤|
口口④① |--⑥-|
23
口口⑥③ |①--②|
⑥③⑤② |--③-|
⑤②④① |④--⑤|
④①口口 |--⑥-|
24
⑥③口口 |①--②|
⑤②⑥③ |--③-|
④①⑤② |④--⑤|
口口④① |--⑥-|
25
⑤口口① |①--②|
口③④② |--③-|
②④③口 |-④--|
①口口⑤ |⑤---|
26
口口口① |--①-|
②③⑨⑧ |②③-④|
口口⑤④ |⑤-⑥⑦|
⑥⑦口口 |-⑧⑨-|
27
③①口④ |①-②-|
⑥口口⑥ |③-④-|
口口口② |⑤--⑥|
⑤⑦⑦⑤ |--⑦-|
28
口口口口 |----|
口口②口 |----|
口口口口 |--①-|
口①③口 |②-③-|
29
①口口① |①-②-|
②⑤口③ |③-④-|
口口⑥④ |⑤--⑥|
口⑦口口 |--⑦-|
30
口口口① |--①-|
②③⑨⑧ |②③-④|
口口⑤④ |⑤-⑥⑦|
⑥⑦口口 |-⑧⑨-|
31
③①口④ |①-②-|
⑥口口⑥ |③-④-|
口口口② |⑤--⑥|
⑤⑦⑦⑤ |--⑦-|
32
口口口口 |----|
口口口口 |----|
口口口口 |----|
口口口口 |----|
33
口口口口 |①-②-|
⑥③④⑥ |③-④-|
①口口② |--⑤-|
口⑤⑤口 |⑥---|
34
口口口口 |--①-|
口①口口 |②-③④|
④③口②
口口口口

口口口口
口⑧⑤⑥
口口口口 |-⑤⑥-|
口口⑦口 |⑦-⑧-|
35
口③②口 |①-②-|
④口口口 |③-④⑤|
口口①⑤ |-⑥⑦-|
⑦⑥口口 |----|
36
口口口口 |--①-|
口口口口 |②-③④|
③④口②
口口①口

口口口口
口口⑥⑤
口口口口 |-⑤⑥-|
口⑦⑧口 |⑦-⑧-|
37
①⑧口① |①-②-|
口②⑦⑥ |③-④⑤|
口口③口 |-⑥⑦-|
④⑤⑨口 |⑧-⑨-|
38
口口口口 |--①-|
口①口口 |②-③④|
④③口②
口口口口

口口口口
口⑧⑤⑥
口口口口 |-⑤⑥-|
口口⑦口 |⑦-⑧-|
39
口③②口 |①-②-|
④口口口 |③-④⑤|
口口①⑤ |-⑥⑦-|
⑦⑥口口 |----|
40
⑦口口⑦ |--①-|
口③④口 |②-③④|
①⑤⑥② |-⑤⑥-|
⑧口口⑧ |⑦-⑧-|
41
⑦口口⑦ |--①-|
口③④口 |②-③④|
①⑤⑥② |-⑤⑥-|
⑧口口⑧ |⑦-⑧-|
42
⑨⑥⑦⑨ |①-②-|
③口口③ |③-④⑤|
②④⑤② |-⑥⑦-|
⑧①①⑧ |⑧-⑨-|
43
口口口口 |----|
口口口口 |----|
口口口口 |----|
口口口口 |----|
44
②⑦⑦① |①-②-|
②④③① |③-④-|
⑥④③⑥ |⑤--⑥|
⑤口口⑤ |--⑦-|
45
⑤口口⑤ |--①-|
④口口④ |②---|
口②①口 |③--④|
③口口③ |--⑤-|
46
口④口口 |--①-|
口②①口 |②-③④|
⑦⑤③⑧ |-⑤⑥-|
口口⑥口 |⑦-⑧-|
47
⑤口口⑤ |①-②-|
口③④口 |③-④-|
口口②口 |--⑤-|
口①口口 |----|
48
口⑤⑤口 |--①-|
④口②④ |②---|
③口口③ |③--④|
口①口口 |--⑤-|
49
口口口口 |-①②-|
口口①口 |③-④⑤|
口②③口
④口口⑤

口口口口
⑥⑦口口
口⑨口⑧ |-⑥⑦-|
口口口口 |⑧-⑨-|
50
③④②① |①-②-|
口⑧⑤口 |③-④⑤|
⑨口⑦⑨ |-⑥⑦-|
口⑥口口 |⑧-⑨-|
51
口口口口 |----|
口口口口 |----|
口口口口 |----|
口口口口 |----|
52
②⑦⑦① |①-②-|
②④③① |③-④-|
⑥④③⑥ |⑤--⑥|
⑤口口⑤ |--⑦-|
53
⑤口口⑤ |--①-|
④口口④ |②---|
口②①口 |③--④|
③口口③ |--⑤-|
54
口④口口 |--①-|
口②①口 |②-③④|
⑦⑤③⑧ |-⑤⑥-|
口口⑥口 |⑦-⑧-|
55
⑤口口⑤ |①-②-|
口③④口 |③-④-|
口口②口 |--⑤-|
口①口口 |----|
56
口⑤⑤口 |--①-|
④口②④ |②---|
③口口③ |③--④|
口①口口 |--⑤-|
57
口口口口 |-①②-|
口口①口 |③-④⑤|
口②③口
④口口⑤

口口口口
⑥⑦口口
口⑨口⑧ |-⑥⑦-|
口口口口 |⑧-⑨-|
58
③④②① |①-②-|
口⑧⑤口 |③-④⑤|
口口⑦口 |-⑥⑦-|
⑨⑥口⑨ |⑧-⑨-|
59
口③④口 |--①-|
口⑦口口 |②-③④|
①⑤⑥② |-⑤⑥-|
口⑧口口 |⑦-⑧-|
60
②口⑤① |①-②-|
④口口③ |③-④⑤|
⑨口⑥⑧ |-⑥⑦-|
口⑦口口 |⑧-⑨-|
61
②口口① |①-②-|
④口⑤③ |③-④⑤|
⑨⑦口⑧ |-⑥⑦-|
口口⑥口 |⑧-⑨-|
62
②口⑤① |①-②-|
④口口③ |③-④⑤|
⑨口⑥⑧ |-⑥⑦-|
口⑦口口 |⑧-⑨-|
63
②口口① |①-②-|
④口⑤③ |③-④⑤|
⑨⑦口⑧ |-⑥⑦-|
口口⑥口 |⑧-⑨-|
64
②口⑤① |①-②-|
④口口③ |③-④⑤|
⑨口⑥⑧ |-⑥⑦-|
①⑦口口 |⑧-⑨-|
65
②口口① |①-②-|
④口⑤③ |③-④⑤|
⑨⑦口⑧ |-⑥⑦-|
①口⑥口 |⑧-⑨-|
66
②口⑤① |①-②-|
④口口③ |③-④⑤|
口口口口
①口口口

口口口口
口口口口
⑧口⑥⑧ |-⑥⑦-|
⑨⑦口⑨ |⑧-⑨-|
67
口①④口 |--①-|
口⑤②口 |②-③-|
口③⑥口 |④-⑤-|
口⑦⑦口 |⑥-⑦-|


不确定度: 0

最終更新:2012年12月27日 16:44