SEED
DJ YOSHITAKA

BASIC

Level: 7
BPM: 152
Notes: 525

1
口口口口 |----|
口口口口 |----|
口口口口 |----|
口口口口 |----|
2
口口口② |①---|
④口口口 |②---|
口口口口 |③---|
口口③① |④---|
3
②口口口 |①---|
口口口④ |②---|
口口口口 |③---|
①③口口 |④---|
4
口口④② |①---|
口口口④ |②---|
口口口口 |③---|
口③口① |④---|
5
②⑤口口 |①---|
口④口口 |②---|
口口口口 |③---|
①口③口 |④-⑤-|
6
口④口② |①---|
④口口口 |②---|
口口口口 |③---|
口③口① |④---|
7
②口⑤口 |①---|
口口④口 |②---|
口口口口 |③---|
①口③口 |④-⑤-|
8
④口口④ |①---|
③口口③ |②---|
②①①② |③---|
口口口口 |④---|
9
口⑤④口 |①-②-|
口⑥③口 |③-④-|
口⑦②口 |⑤-⑥-|
口⑧①口 |⑦-⑧-|
10
口⑦⑥口 |--①-|
口口口③ |②-③-|
⑤口口② |--④-|
④口口① |⑤-⑥⑦|
11
⑦口口⑥ |--①-|
口口③口 |②-③-|
口⑤②口 |--④-|
口④①口 |⑤-⑥⑦|
12
口⑥⑦口 |--①-|
口口口③ |②-③-|
②口⑤口 |--④-|
口④口① |⑤-⑥⑦|
13
⑤口口④ |①-②-|
口⑥③口 |③-④-|
口②⑦口 |⑤-⑥-|
①口口⑧ |⑦-⑧-|
14
口⑥⑦口 |--①-|
③口口口 |②-③-|
②口口⑤ |--④-|
①口口④ |⑤-⑥⑦|
15
⑥口口⑦ |--①-|
口③口口 |②-③-|
口②⑤口 |--④-|
口①④口 |⑤-⑥⑦|
16
口⑦⑥口 |--①-|
③口口口 |②-③-|
口⑤口② |--④-|
①口④口 |⑤-⑥⑦|
17
④口口⑤ |①-②-|
口③⑥口 |③-④-|
口⑦②口 |⑤-⑥-|
⑧口口① |⑦-⑧-|
18
⑦④①⑥ |--①-|
③③口口 |②-③-|
口口口口 |--④-|
口⑤②口 |⑤-⑥⑦|
19
口④①口 |--①-|
口⑦⑥口 |②-③-|
③③口口 |--④-|
口⑤②口 |⑤-⑥⑦|
20
④口口① |--①-|
口口口口 |②-③-|
口⑦③口 |--④-|
②⑥③⑤ |⑤-⑥⑦|
21
口口②① |①-②-|
口口④③ |③-④-|
⑤⑥口口 |⑤-⑥-|
⑦⑧口口 |⑦-⑧-|
22
③③口口 |--①-|
⑦④①⑥ |②-③-|
口口口口 |--④-|
口⑤②口 |⑤-⑥⑦|
23
③③口口 |--①-|
口④①口 |②-③-|
口口口口 |--④-|
⑦⑤②⑥ |⑤-⑥⑦|
24
口口口口 |--①-|
③口口③ |②-③-|
②①①②
口口口口

口⑤⑤口
口④④口
口⑥⑥口 |④---|
口口口口 |⑤-⑥-|
25
口②②口 |①---|
口③③口 |----|
①口口① |②---|
①③③① |③---|
26
口口②口 |①---|
口口③口 |----|
①①①① |----|
口口口口 |②-③-|
27
口①口口 |----|
口②口口 |①---|
口口口口 |②---|
口口③③ |③---|
28
口口②② |①---|
口口③口 |--②-|
①①口口 |----|
口口口口 |--③-|
29
口口口口 |①-②-|
口①口口 |--③-|
口口②口 |----|
口③口④ |④---|
30
口口口口 |①---|
口②②口 |--②-|
口口口口 |----|
①③③口 |③---|
31
口③③口 |①---|
口②②口 |--②-|
口①①口 |----|
口口口口 |③---|
32
口口口② |①---|
口口口③ |----|
口口口口 |----|
口①①口 |②-③-|
33
口口①口 |--①-|
口口②口 |--②-|
口口③口 |--③-|
口口口口 |----|
34
③口③口 |----|
①②①② |①---|
口④口④ |②---|
口口口口 |③-④-|
35
③①③① |--①-|
②口②口 |--②-|
口口口口 |--③-|
口④口④ |--④-|
36
口③口③ |----|
②①②① |①---|
④口④口 |②---|
口口口口 |③-④-|
37
①④①④ |--①-|
口②口② |--②-|
口口口口 |--③-|
③口③口 |--④-|
38
③口③口 |----|
①②①② |①---|
口④口④ |②---|
口口口口 |③-④-|
39
③①③① |--①-|
②口②口 |--②-|
口口口口 |--③-|
口④口④ |--④-|
40
口③口③ |----|
②①②① |①---|
④口④口 |②---|
口口口口 |③-④-|
41
①④①④ |--①-|
口②口② |--②-|
口口口口 |--③-|
③口③口 |--④-|
42
口口口口 |①---|
②口②口 |②---|
①①①①
口口口口

口④口④
口口口口
⑤口⑤口 |③---|
口③口③ |④-⑤-|
43
③口③口 |--①-|
口①口① |--②-|
口口口口 |--③-|
②④②④ |--④-|
44
③口③口 |----|
口①口① |①---|
口④口④ |②---|
②口②口 |③-④-|
45
口④口④ |--①-|
①口①口 |--②-|
口口口口 |--③-|
③②③② |--④-|
46
口③口③ |----|
①口①口 |①---|
④口④口 |②---|
口②口② |③-④-|
47
③口③口 |--①-|
口①口① |--②-|
口口口口 |--③-|
②④②④ |--④-|
48
③口③口 |----|
口①口① |①---|
口④口④ |②---|
②口②口 |③-④-|
49
口④口④ |--①-|
①口①口 |--②-|
口口口口 |--③-|
③②③② |--④-|
50
口口口口 |①---|
口①①口 |----|
口①①口 |----|
口口口口 |----|
51
口口口口 |----|
口⑤⑤口 |--①-|
③①②④ |②-③-|
口口口口 |④-⑤-|
52
①⑥口口 |①--②|
③口⑤口 |--③-|
口②口口 |-④--|
口④口口 |⑤-⑥-|
53
口口⑥① |①--②|
口⑤口③ |--③-|
口口②口 |-④--|
口口④口 |⑤-⑥-|
54
①①口口 |①--②|
⑤⑥③③ |--③-|
②②⑥⑤ |-④--|
口口④④ |⑤-⑥-|
55
①①口口 |①--②|
口口③③ |--③-|
②②口口
口口口口

⑥⑥口口
口口口口
口口口口 |-④--|
⑤⑤④④ |⑤-⑥-|
56
口口⑥① |①--②|
口⑤口③ |--③-|
口口②口 |-④--|
口口④口 |⑤-⑥-|
57
①⑥口口 |①--②|
③口⑤口 |--③-|
口②口口 |-④--|
口④口口 |⑤-⑥-|
58
口口③口 |①--②|
口口口口 |--③-|
口①②口
口口①②

口口口⑤
口口口口
口口口④ |-④--|
口口口⑥ |⑤-⑥-|
59
口⑥⑤口 |①--②|
口④口口 |--③-|
口②①口 |-④--|
②①③口 |⑤-⑥-|
60
③口口③ |①---|
①②②① |②-③-|
①②②①
口口口口

口口口口
口口口口
⑥口口⑤ |-④--|
口④口口 |⑤-⑥-|
61
口③③口 |①---|
②①①② |②-③-|
⑤①①⑥ |-④--|
②口④② |⑤-⑥-|
62
④③②① |①--②|
①②③④ |--③-|
口⑤⑤口 |-④--|
口⑥⑥口 |⑤-⑥-|
63
④③②① |①--②|
①②③④ |--③-|
口⑥⑥口 |-④--|
口⑤⑤口 |⑤-⑥-|
64
③③①① |①-②-|
④②②④ |③-④-|
④⑦⑦④ |-⑤--|
⑥⑤⑤⑥ |⑥-⑦-|
65
①①③③ |①-②-|
④②②④ |③-④-|
④⑦⑦④ |-⑤--|
⑥⑤⑤⑥ |⑥-⑦-|
66
①②①② |①--②|
口口口口 |--③-|
④⑤④⑤ |-④--|
⑥③③⑥ |⑤-⑥-|
67
②①②① |①--②|
口口口口 |--③-|
⑤④⑤④ |-④--|
⑥③③⑥ |⑤-⑥-|
68
口口口口 |①---|
①①①① |----|
口口口口 |----|
口口口口 |----|


不确定度: 0

最終更新:2012年12月27日 16:43