405nm (Ryu☆mix)
Another Infinity

BASIC

Level: 7
BPM: 177
Notes: 511

1
口口口口 |----|
口口口口 |----|
口口口口 |----|
口口口口 |----|
2
口口口① |①---|
口口口口 |----|
②③④⑤ |②-③-|
口口口口 |④-⑤-|
3
口口口口 |①---|
①①口口 |----|
口口口口 |----|
口口口口 |----|
4
口口⑧⑦ |①-②-|
口②①⑥ |③-④-|
口③④⑤ |⑤-⑥-|
口口口口 |⑦-⑧-|
5
口口口口 |①-②-|
⑤⑤口口 |③-④-|
口口口口 |⑤---|
①②③④ |----|
6
口口④② |①-②-|
口口口口 |③-④-|
③口口口
①口口口

⑦⑥口口
⑤口口口
口口口口 |⑤-⑥-|
⑧口口口 |⑦-⑧-|
7
口口③① |①-②-|
④口口口 |③-④-|
②口口口
口口口口

⑥⑤口⑧
口口口口
口口口口 |⑤-⑥-|
⑦口口口 |⑦-⑧-|
8
口口口口 |①-②-|
口口口② |③-④-|
口口口④
口①③口

口口口口
口口口口
口口口口 |⑤-⑥-|
⑥⑦口⑤ |--⑦-|
9
口口⑧⑥ |①-②-|
口口口① |③-④-|
⑦口口③ |⑤-⑥-|
⑤口②④ |⑦-⑧-|
10
③②口⑤ |①-②-|
①口口⑦ |③-④-|
口口口口 |⑤-⑥-|
④⑥⑧口 |⑦-⑧-|
11
口口⑧口 |①-②-|
口⑦⑥口 |③-④-|
口⑤④① |⑤-⑥-|
③口口② |⑦-⑧-|
12
口①口口 |①-②-|
②口口口 |③-④-|
③口口⑧ |⑤-⑥-|
④⑤⑥⑦ |⑦-⑧-|
13
口口口口 |①-②-|
②④③① |③-④-|
口⑥⑥口 |⑤---|
口⑤⑤口 |⑥---|
14
①口口① |①---|
口口口口 |----|
口口口口 |----|
口口口口 |----|
15
口口口口 |----|
口口口口 |----|
口口口口 |----|
口口口口 |----|
16
④⑤⑥⑦ |①-②-|
⑧口口③ |③-④-|
口口口② |⑤-⑥-|
口口口① |⑦-⑧-|
17
⑧口口口 |①-②-|
⑦口口口 |③-④-|
④③②① |⑤-⑥-|
口口⑥⑤ |⑦-⑧-|
18
口口口③ |①-②-|
口口口② |③-④-|
⑧口口① |⑤-⑥-|
④⑤⑥⑦ |⑦-⑧-|
19
口口口口 |①-②-|
④③②① |③-④-|
口口⑥⑤ |⑤-⑥-|
⑧⑦口口 |⑦-⑧-|
20
口③口口 |①-②-|
口②口口 |③-④-|
口①口⑧ |⑤-⑥-|
⑦⑥⑤④ |⑦-⑧-|
21
⑤⑥口口 |①-②-|
①②③④ |③-④-|
口口口⑧ |⑤-⑥-|
口口口⑦ |⑦-⑧-|
22
⑦⑥⑤④ |①-②-|
③口口口 |③-④-|
②口口口 |⑤-⑥-|
①口口⑧ |⑦-⑧-|
23
⑧⑦口口 |①-②-|
口口⑥⑤ |③-④-|
④③②① |⑤-⑥-|
口口口口 |⑦-⑧-|
24
口口口口 |①--②|
口口口口 |--③-|
口口②口
口③①①

口口口口
口口口口
④口口⑤ |-④--|
口口⑥口 |⑤-⑥-|
25
口口口口 |①--②|
⑥①口③ |--③-|
口⑤④口 |-④--|
②口口口 |⑤-⑥-|
26
口口口口 |①--②|
口口②⑤ |--③-|
④口⑥① |-④--|
口③口口 |⑤-⑥-|
27
⑥①口③ |①--②|
②⑤④口 |--③-|
口口口口 |-④--|
口口口口 |⑤-⑥-|
28
口口口口 |①--②|
口口口口 |--③-|
口口②口
口③①①

口口口口
口口口口
④口口⑤ |-④--|
口口⑥口 |⑤-⑥-|
29
口口口口 |①--②|
①①口③ |--③-|
口口口口
②口口口

口口口口
⑥口口口
口⑤④口 |-④--|
口口口口 |⑤-⑥-|
30
口口口口 |①--②|
口口②⑤ |--③-|
④口⑥① |-④--|
口③口① |⑤-⑥-|
31
①①②② |①-②-|
口③④口 |③-④-|
口口口口 |⑤---|
口⑤⑤口 |----|
32
口口口口 |①--②|
口口口口 |--③-|
⑤②口④ |-④--|
①⑥③口 |⑤-⑥-|
33
口口口口 |①--②|
③口①⑥ |--③-|
口④⑤口 |-④--|
口口口② |⑤-⑥-|
34
口口口口 |①--②|
⑤②口口 |--③-|
①⑥口④ |-④--|
口口③口 |⑤-⑥-|
35
③口①⑥ |①--②|
口④⑤② |--③-|
口口口口 |-④--|
口口口口 |⑤-⑥-|
36
口口口口 |①--②|
口口口口 |--③-|
口②口口
①①③口

口口口口
口口口口
⑤口口④ |-④--|
口⑥口口 |⑤-⑥-|
37
口口口口 |①--②|
③口①① |--③-|
口口口口
口口口②

口口口口
口口口⑥
口④⑤口 |-④--|
口口口口 |⑤-⑥-|
38
口口口口 |①--②|
⑤②口口 |--③-|
①⑥口④ |-④--|
①口③口 |⑤-⑥-|
39
口口①① |①--②|
口③口⑤ |--③-|
②口④⑦ |④-⑤-|
口口⑥口 |⑥-⑦-|
40
口口③② |①---|
口口①口 |②---|
④口口口 |③---|
⑤口口口 |④-⑤-|
41
口①口口 |----|
口口①口 |----|
②口口口 |①---|
口口口口 |--②-|
42
②口口③ |①---|
口①口④ |②---|
口口口⑤ |③-④-|
口口口⑥ |⑤-⑥-|
43
口口口口 |①---|
②口口口 |②-③-|
口③口口 |④---|
④口①口 |----|
44
②③口口 |①---|
口①口口 |②---|
口口口④ |③---|
口口口⑤ |④-⑤-|
45
③口①② |----|
口①口口 |----|
口口口口 |①---|
口口口口 |②-③-|
46
口口口口 |①-②-|
⑧口口① |③-④-|
⑦口口② |⑤-⑥-|
⑥⑤④③ |⑦-⑧-|
47
⑤口口⑤ |①-②-|
口④③口 |③-④-|
口②①口 |⑤---|
口口口口 |----|
48
口口口⑤ |①-②-|
③口口① |③-④-|
⑥口口口 |--⑤-|
②口口④ |--⑥-|
49
①口口口 |--①-|
口⑤③口 |--②-|
口口口② |③-④-|
口④⑥口 |⑤-⑥-|
50
口③①口 |①-②-|
口口⑤口 |③-④-|
口②④口 |--⑤-|
口⑥口口 |--⑥-|
51
口口口⑦ |①-②-|
⑤①口③ |--③-|
口口口口 |④-⑤-|
④口②⑥ |⑥-⑦-|
52
②⑧④口 |①-②-|
口⑦口口 |③-④-|
①⑥口③ |⑤-⑥-|
口⑤口口 |⑦-⑧-|
53
⑦口口⑤ |①-②-|
③口口① |③-④-|
⑥口口⑧ |⑤-⑥-|
②口口④ |⑦-⑧-|
54
口口口⑤ |①-②-|
口③①⑥ |③-④-|
口口口口 |--⑤-|
口②④口 |--⑥-|
55
⑥口口口 |--①-|
⑤口口口 |--②-|
④②①口 |③-④-|
③口口口 |⑤-⑥-|
56
口口口口 |----|
口口口口 |----|
口口口口 |----|
口口口口 |----|
57
口口口口 |①-②-|
口口⑤口 |③-④-|
口④③口 |⑤---|
②口口① |----|
58
口口口⑤ |①--②|
口口口① |--③-|
④口②⑤ |-④--|
口③⑥① |⑤-⑥-|
59
口口口口 |①--②|
⑥①口③ |--③-|
口⑤④口 |-④--|
②口口③ |⑤-⑥-|
60
口口口① |①--②|
口口②⑤ |--③-|
④口⑥① |-④--|
口③口⑤ |⑤-⑥-|
61
⑥①口③ |①--②|
②⑤④口 |--③-|
口口口③ |-④--|
口口口口 |⑤-⑥-|
62
口口口口 |①--②|
口口口① |--③-|
④口②⑤ |-④--|
口③⑥① |⑤-⑥-|
63
②②口口 |①---|
①①口口 |----|
口口口④ |②---|
口口口③ |③-④-|
64
口口②② |①---|
口③③① |②---|
④口口口 |③---|
⑤口口口 |④-⑤-|
65
口口口口 |----|
口口口口 |----|
口②口口 |①---|
口口口① |--②-|
66
③②②口 |①---|
④口①口 |②---|
⑤口口口 |③-④-|
⑥口口口 |⑤-⑥-|
67
口口口口 |①---|
口口口② |②-③-|
口口③口 |④---|
口①口④ |----|
68
②②口口 |①---|
口③③口 |②---|
①口口④ |③---|
口口口⑤ |④-⑤-|
69
口口口口 |----|
②口口口 |----|
口③口口 |①---|
①口口口 |②-③-|
70
②口口② |①---|
口④⑤口 |②---|
③口口⑥ |③-④-|
口①①口 |⑤-⑥-|
71
口②②口 |①---|
③口口③ |②---|
口①①口 |③---|
③口口③ |----|
72
③口口口 |①---|
口④口口 |②---|
②口⑤口 |③-④-|
口①口⑥ |⑤-⑥-|
73
口口口口 |①---|
口④②口 |②---|
口口口口 |③---|
口③①口 |④---|
74
口口②③ |①---|
口口④口 |②---|
口⑤口口 |③-④-|
⑥口口① |⑤-⑥-|
75
口口口口 |①---|
口口口② |②-③-|
口口③口 |④---|
口①口④ |----|
76
③口口③ |①---|
口④④口 |②---|
②⑤⑤② |③-④-|
⑥①①⑥ |⑤-⑥-|
77
④⑤⑤④ |①---|
①口口① |②-③-|
③⑥⑥③ |④---|
口②②口 |⑤-⑥-|
78
口口口口 |①-②-|
④⑦⑥③ |③-④-|
⑧口口⑤ |⑤-⑥-|
②口口① |⑦-⑧-|
79
口④④口 |①-②-|
③口口③ |③-④-|
口②②口 |⑤---|
①⑤⑤① |----|
80
口口口口 |①---|
口①①口 |----|
口①①口 |----|
口口口口 |----|


不确定度: 0

最終更新:2012年12月27日 16:40