†渚の小悪魔ラヴリィ~レイディオ†
夏色ビキニのPrim

BASIC

Level: 6
BPM: 190
Notes: 365

1
口口口口 |----|
口口口口 |----|
口口口口 |----|
口口口口 |----|
2
口口口口 |①---|
①口口口 |----|
①口口口 |----|
口口口口 |----|
3
口口口口 |①---|
口口口① |----|
口口口① |----|
口口口口 |----|
4
口②②口 |①---|
口口口口 |----|
口口口口 |②---|
口①①口 |----|
5
口口口④ |①---|
口口③口 |②---|
口②口口 |③---|
①口口① |④---|
6
④口口口 |①---|
③口口口 |②---|
口口口② |③---|
口口口① |④---|
7
口④④口 |①---|
口③③口 |②---|
口②②口 |③---|
口①①口 |④---|
8
口口口④ |①---|
口口口③ |②---|
②口口口 |③---|
①口口口 |④---|
9
口①①口 |①---|
口②②口 |②---|
口③③口 |③---|
口④④口 |④---|
10
口口口② |①---|
口口口口 |--②-|
口口口口 |----|
①口口口 |----|
11
②口口口 |①---|
口口口口 |--②-|
口口口口 |----|
口口口① |----|
12
口口口口 |①---|
③口口④ |②---|
口口口口 |③---|
①口口② |④---|
13
④口口④ |①---|
口③③口 |②---|
②口口② |③---|
口①①口 |④---|
14
口④口口 |①---|
③口口口 |②---|
口②口口 |③---|
①口口口 |④---|
15
口口④口 |①---|
口③口口 |②---|
口口②口 |③---|
口①口口 |④---|
16
口口口④ |①---|
口口③口 |②---|
口口口② |③---|
口口①口 |④---|
17
口口口口 |①---|
①①口口 |②---|
②②口口 |----|
③③口口 |③---|
18
口口④口 |①---|
口口口③ |②---|
口口②口 |③---|
口口口① |④---|
19
口④口口 |①---|
口口③口 |②---|
口②口口 |③---|
口口①口 |④---|
20
④口口口 |①---|
口③口口 |②---|
②口口口 |③---|
口①口口 |④---|
21
口①①口 |①---|
②口口② |②---|
④口口④ |③---|
口③③口 |④---|
22
①②③④ |①---|
口口口口 |②---|
口口口口 |③---|
口口口口 |④---|
23
口口口口 |①---|
④③②① |②---|
口口口口 |③---|
口口口口 |④---|
24
口口口口 |①---|
口口口口 |②---|
①②③④ |③---|
口口口口 |④---|
25
④口口④ |①---|
②口口② |②---|
口③③口 |③---|
口①①口 |④---|
26
口①③口 |①---|
口口口口 |②---|
④口口② |③---|
口口口口 |④---|
27
口口口口 |①---|
④口口② |②---|
口口口口 |③---|
口③①口 |④---|
28
口①①口 |①---|
口口口口 |----|
口②②口 |②---|
口③③口 |③---|
29
④④④④ |①---|
③口口③ |②---|
②口口② |③---|
①口口① |④---|
30
口口口④ |①---|
口口③口 |②---|
口②口口 |③---|
①口口口 |④---|
31
④口口口 |①---|
口③口口 |②---|
口口②口 |③---|
口口口① |④---|
32
口口口④ |①---|
①口口② |②---|
③口口口 |③---|
口口口口 |④---|
33
口口口口 |①---|
口口①口 |----|
口口口口 |②---|
②口口口 |----|
34
①②③口 |①---|
口口口口 |②---|
口口口口 |③---|
口口口④ |④---|
35
口口口口 |①---|
口④④口 |②---|
口③③口 |③---|
口②①口 |④---|
36
①口口① |①---|
口口口口 |----|
口口口口 |----|
口口口口 |----|
37
口口口① |①---|
口口②口 |--②-|
口③口口 |----|
口口口口 |③---|
38
①口③口 |①---|
①口③② |②---|
口口口② |----|
口口口口 |③---|
39
③口口口 |①---|
口③口口 |----|
口①口② |②---|
口①②口 |③---|
40
口③口① |①---|
②③口① |②---|
②口口口 |----|
口口口口 |③---|
41
口口口口 |①---|
口口口口 |----|
口口①口 |----|
口口①口 |----|
42
口口口口 |①---|
口口口口 |②---|
口口口口 |③---|
①②③④ |④---|
43
口口口口 |①---|
④③②① |②---|
口口口口 |③---|
口口口口 |④---|
44
口口口口 |①---|
口口口口 |②---|
①②③④ |③---|
口口口口 |④---|
45
④③②① |①---|
口口口口 |②---|
口口口口 |③---|
口口口口 |④---|
46
口口口口 |①---|
口口口口 |②---|
③口口④ |③---|
①口口② |④---|
47
口③④口 |①---|
口①②口 |②---|
口口口口 |③---|
口口口口 |④---|
48
口口口④ |①---|
口口③口 |②---|
口②口口 |③---|
①口口口 |④---|
49
口①①口 |①---|
②口口② |②---|
口③③口 |③---|
④口口④ |④---|
50
口①①口 |①---|
口口口口 |②---|
②口口② |----|
口③③口 |③---|
51
口口口口 |①---|
①口口① |----|
口口口口 |----|
口口口口 |----|
52
②口②口 |①---|
口②口口 |②---|
口口口口 |----|
口①③口 |③---|
53
口①口① |①---|
口口①口 |----|
口口口口 |----|
口口口口 |----|
54
①口口② |①---|
口口口口 |----|
口口口口 |②---|
口口口口 |----|
55
口口口口 |①---|
口①②口 |----|
口口口口 |②---|
口口口口 |----|
56
口口口口 |①---|
口口口口 |----|
口③口口 |②---|
①口口② |③---|
57
口口口口 |①---|
②口口口 |----|
口口①口 |②---|
口口口口 |----|
58
口②口口 |①---|
口口口① |----|
口口口口 |②---|
口口口口 |----|
59
口口①口 |①---|
③②口口 |----|
口口口口 |②---|
口口口口 |③---|
60
口口口口 |①---|
口口口② |----|
①口口口 |②---|
口口口口 |----|
61
口口口口 |①---|
口口口口 |----|
口口①口 |②---|
口②口口 |----|
62
口口口口 |①---|
口口口口 |②---|
④口口③ |③---|
②口口① |④---|
63
④口口③ |①---|
②口口① |②---|
口口口口 |③---|
口口口口 |④---|
64
口②③口 |①---|
口④①口 |②---|
口口口口 |③---|
口口口口 |④---|
65
口口口口 |①---|
①口口口 |②---|
口②③口 |③---|
口口口④ |④---|
66
口口口口 |①---|
口口口① |②---|
口④口② |③---|
口口③口 |④---|
67
④口口口 |①---|
③口口口 |②---|
②口口口 |③---|
①口口口 |④---|
68
口④②口 |①---|
③口口① |②---|
口口口口 |③---|
口口口口 |④---|
69
②口口② |①---|
④①①④ |②---|
口口口口 |③---|
③口口③ |④---|
70
口①①口 |①---|
口口口口 |----|
口口口口 |②---|
③口口② |③---|
71
口①①口 |①---|
②口口② |②---|
④口口④ |③---|
口③③口 |④---|
72
口口口口 |①---|
口口④口 |②---|
口②③口 |③---|
①口口口 |④---|
73
口口②① |①---|
口③口口 |②---|
④口口口 |③---|
口口口口 |④---|
74
口②口口 |①---|
口口③口 |②---|
口口口④ |③---|
口①口口 |④---|
75
口口口口 |①---|
口口口口 |----|
口②②口 |②---|
口口①口 |----|
76
口口④① |①---|
口口②口 |②---|
口③口口 |③---|
口口口口 |④---|
77
口口口口 |①---|
口①口口 |②---|
②④④口 |③---|
口③③口 |④---|
78
①口口① |①---|
口①①口 |----|
口口口口 |----|
口口口口 |----|
79
①口口口 |①---|
口②口口 |--②-|
口口③口 |----|
口口口口 |③---|
80
口②②口 |①---|
口口口口 |②---|
口口③③ |----|
①①口口 |③---|
81
口③口③ |①---|
①①③口 |----|
②口口口 |②---|
口②口口 |③---|
82
①口口口 |①---|
②②口口 |②---|
口口③口 |----|
口口口口 |③---|
83
口口口口 |①---|
口口口口 |----|
口口口口 |----|
口口①① |----|
84
口口口口 |①---|
①①①口 |②---|
口②口③ |--③-|
口②口③ |----|
85
口口①口 |①---|
口口口① |--②-|
②口口口 |----|
②②口口 |----|


不确定度: 0

最終更新:2012年12月27日 16:39