Twinkle Wonderland
Qrispy Joybox feat.Sana

BASIC

Level: 4
BPM: 188
Notes: 202

1
口口口口 |----|
口口口口 |----|
口口口口 |----|
口口口口 |----|
2
①口口① |①---|
②口口② |----|
口口口口 |----|
口口口口 |--②-|
3
口口口口 |----|
口口口口 |----|
口口口口 |----|
口口口口 |----|
4
口口口口 |①---|
口口口口 |----|
①口口① |----|
②口口② |--②-|
5
口口口口 |----|
口口口口 |----|
口口口口 |----|
口口口口 |----|
6
口①①口 |①---|
口②②口 |----|
口口口口 |----|
口口口口 |--②-|
7
口口口口 |----|
口口口口 |----|
口口口口 |----|
口口口口 |----|
8
口口口口 |①---|
口口口口 |----|
口②②口 |②---|
口①①口 |----|
9
③口口③ |--①-|
①口口① |--②-|
②口口② |--③-|
口口口口 |----|
10
口口口口 |①---|
口①②口 |----|
口口口口 |②---|
口口口口 |----|
11
口口口口 |①---|
口口口口 |②---|
①②③④ |③---|
口口口口 |④---|
12
口口口口 |①---|
口口口口 |----|
口口口口 |②---|
口①②口 |----|
13
口口口口 |①---|
口口口口 |②---|
④③②① |③---|
口口口口 |④---|
14
口口口口 |①---|
口①②口 |----|
口口口口 |②---|
口口口口 |----|
15
①②③④ |①---|
口口口口 |②---|
口口口口 |③---|
口口口口 |④---|
16
口口口口 |①---|
①口口① |--②-|
口②②口 |----|
③口口③ |--③-|
17
口口口口 |----|
口口口口 |----|
口口口口 |----|
口口口口 |----|
18
①①口口 |①---|
口口口口 |----|
口口口口 |----|
口口口口 |----|
19
口口口口 |①---|
口口口口 |----|
①①口口 |----|
口口口口 |----|
20
口口①① |①---|
口口口口 |----|
口口口口 |----|
口口口口 |----|
21
口口口口 |①---|
口口口口 |----|
口口①① |----|
口口口口 |----|
22
口口口口 |①---|
口①①口 |----|
口口口口 |----|
口口口口 |----|
23
口口口口 |①---|
口口口口 |----|
口口口口 |----|
口①①口 |----|
24
口口口口 |①---|
①口口① |----|
口口口口 |----|
口口口口 |----|
25
口口口口 |①---|
口口口口 |----|
口口口口 |----|
①口口① |----|
26
①口口口 |①---|
②①口口 |----|
口②口口 |②---|
口口口口 |----|
27
口口口口 |①---|
口口口口 |----|
①口口口 |----|
口①口口 |----|
28
口口口① |①---|
口口①② |----|
口口②口 |②---|
口口口口 |----|
29
口口口口 |①---|
口口口口 |----|
口口口① |----|
口口①口 |----|
30
口①①口 |①---|
口②②口 |----|
口口口口 |②---|
口口口口 |----|
31
口口口口 |①---|
口口口口 |----|
口①①口 |----|
口口口口 |----|
32
口口口口 |①---|
①口口① |--②-|
口③③口 |----|
②口口② |③---|
33
②口口② |--①-|
口①①口 |----|
口口口口 |②---|
口口口口 |----|
34
②口口② |①---|
口口口口 |----|
口口口口 |----|
①口口① |--②-|
35
口口口口 |----|
口口口口 |----|
口口口口 |----|
口口口口 |----|
36
口口口口 |----|
口口口口 |----|
口口口口 |----|
口口口口 |----|
37
口口口口 |①---|
口①②口 |----|
口口口口 |②---|
口口口口 |----|
38
②口口② |①---|
口口口口 |----|
口口口口 |----|
①口口① |--②-|
39
口口口口 |----|
口口口口 |----|
口口口口 |----|
口口口口 |----|
40
口口口口 |----|
口口口口 |----|
口口口口 |----|
口口口口 |----|
41
口口口口 |①---|
口①①口 |----|
口①①口 |----|
口口口口 |----|
42
①口口口 |①---|
②①口口 |----|
口②口口 |②---|
口口口口 |----|
43
口口口口 |①---|
口口口口 |----|
①口口口 |----|
口①口口 |----|
44
口口口① |①---|
口口①② |----|
口口②口 |②---|
口口口口 |----|
45
口口口口 |①---|
口口口口 |----|
口口口① |----|
口口①口 |----|
46
口①①口 |①---|
口②②口 |----|
口口口口 |②---|
口口口口 |----|
47
口口口口 |①---|
口口口口 |----|
口①①口 |②---|
口②②口 |----|
48
口口口口 |①---|
①口口① |--②-|
口③③口 |----|
②口口② |③---|
49
口口口口 |--①-|
口①①口 |----|
口口口口 |----|
口口口口 |----|
50
①口口① |①---|
②口口② |----|
口口口口 |----|
口口口口 |--②-|
51
口口口口 |----|
口口口口 |----|
口口口口 |----|
口口口口 |----|
52
口口口口 |①---|
口口口口 |----|
①口口① |----|
②口口② |--②-|
53
口口口口 |----|
口口口口 |----|
口口口口 |----|
口口口口 |----|
54
口①①口 |①---|
口②②口 |----|
口口口口 |----|
口口口口 |--②-|
55
口口口口 |----|
口口口口 |----|
口口口口 |----|
口口口口 |----|
56
口口口口 |①---|
口口口口 |----|
口②②口 |②---|
口①①口 |----|
57
③口口③ |--①-|
①口口① |--②-|
②口口② |--③-|
口口口口 |----|
58
口口口口 |①---|
口①②口 |----|
口口口口 |②---|
口口口口 |----|
59
口口口口 |①---|
口口口口 |②---|
①②③④ |③---|
口口口口 |④---|
60
口口口口 |①---|
口口口口 |----|
口口口口 |②---|
口①②口 |----|
61
口口口口 |①---|
口口口口 |②---|
④③②① |③---|
口口口口 |④---|
62
口口口口 |①---|
口①②口 |----|
口口口口 |②---|
口口口口 |----|
63
①②③④ |①---|
口口口口 |②---|
口口口口 |③---|
口口口口 |④---|
64
口口口口 |①---|
①口口① |--②-|
口②②口 |----|
③口口③ |--③-|
65
口口口口 |----|
口口口口 |----|
口口口口 |----|
口口口口 |----|
66
②口口② |①---|
口①①口 |----|
口口口口 |----|
口口口口 |--②-|
67
口口口口 |----|
口口口口 |----|
口口口口 |----|
口口口口 |----|
68
口口口口 |①---|
①口口② |----|
①口口② |----|
口口口口 |②---|
69
口口口口 |----|
口口口口 |----|
口口口口 |----|
口口口口 |----|
70
②口口② |①---|
口①①口 |----|
口口口口 |----|
口口口口 |--②-|
71
口口口口 |----|
口口口口 |----|
口口口口 |----|
口口口口 |----|
72
口口口口 |①---|
③口口③ |--②-|
口②②口 |----|
口①①口 |--③-|
73
口口口口 |----|
口口口口 |----|
口口口口 |----|
口口口口 |----|
74
口口口口 |①---|
口②①口 |----|
口①②口 |----|
口口口口 |--②-|
75
口口口口 |----|
口口口口 |----|
口口口口 |----|
口口口口 |----|
76
①口口① |①---|
口口口口 |----|
口口口口 |----|
口口口口 |----|


不确定度: 0

最終更新:2012年12月27日 16:38