Twinkle Wonderland
Qrispy Joybox feat.Sana

ADVANCED

Level: 6
BPM: 188
Notes: 393

1
口口口口 |----|
口口口口 |----|
口口口口 |----|
口口口口 |----|
2
口①口口 |①-②-|
口口②⑤ |③-④-|
⑥③口口 |--⑤-|
口口④⑦ |⑥-⑦-|
3
口口④口 |--①-|
③⑤口口 |②-③-|
口①⑥口 |④-⑤-|
口⑦②口 |⑥-⑦-|
4
④⑤⑥口 |①-②-|
口⑥⑤③ |③-④-|
②口口口 |--⑤-|
口口口① |--⑥-|
5
口口口口 |----|
口口口口 |----|
口口口口 |----|
口口口口 |----|
6
口①口口 |①-②-|
口口②⑤ |③-④-|
⑥③口口 |--⑤-|
口口④⑦ |⑥-⑦-|
7
口口④口 |--①-|
③⑤口口 |②-③-|
口①⑥口 |④-⑤-|
口⑦②口 |⑥-⑦-|
8
②口口① |①---|
口②①口 |----|
口口口口 |②---|
口口口口 |----|
9
③口口③ |--①-|
①③③① |--②-|
②①①② |--③-|
口②②口 |----|
10
⑤①②⑤ |--①-|
口③③口 |②---|
口④④口 |③---|
口口口口 |④-⑤-|
11
口口口口 |--①-|
①口口① |--②-|
②口口② |--③-|
③④④③ |--④-|
12
⑤②①⑤ |--①-|
口③③口 |②---|
口④④口 |③---|
口口口口 |④-⑤-|
13
口口口口 |--①-|
①口口① |--②-|
②④④② |--③-|
③口口③ |--④-|
14
⑤①②⑤ |--①-|
口③③口 |②---|
口④④口 |③---|
口口口口 |④-⑤-|
15
口口口口 |--①-|
①口口① |--②-|
②口口② |--③-|
③口口③ |----|
16
③口口③ |①---|
②③③① |--②-|
口②①口 |----|
口口口口 |--③-|
17
口口口口 |----|
口口口口 |----|
口口口口 |----|
口口口口 |----|
18
⑤口口⑤ |①---|
口口口① |②---|
口口②口 |③-④-|
口③④口 |--⑤-|
19
口口口口 |--①-|
口口口口 |----|
①口口① |----|
口口口口 |----|
20
⑤口口⑤ |①---|
①口口口 |②---|
口②口口 |③-④-|
口④③口 |--⑤-|
21
口口口口 |----|
口口口口 |----|
口口口口 |----|
口口口口 |----|
22
⑤口口⑤ |①---|
口口口① |②---|
口口②口 |③-④-|
口③④口 |--⑤-|
23
口口口口 |--①-|
口口口口 |----|
①口口① |----|
口口口口 |----|
24
⑤口口⑤ |①---|
①口口口 |②---|
口②口口 |③-④-|
口④③口 |--⑤-|
25
口口口口 |--①-|
②口口② |--②-|
①②②① |----|
口口口口 |----|
26
口①②口 |①-②-|
口③④口 |--③-|
口⑤⑥口 |④---|
口口口口 |⑤-⑥-|
27
口口口口 |--①-|
口口口口 |----|
口口口口 |----|
①口口① |----|
28
口②①口 |①-②-|
口④③口 |--③-|
口⑥⑤口 |④---|
口口口口 |⑤-⑥-|
29
口口口口 |--①-|
口口口口 |②-③-|
口口口口 |----|
口②①③ |----|
30
①口口② |①-②-|
③口口④ |--③-|
⑤口口⑥ |④---|
口口口口 |⑤-⑥-|
31
口口口口 |--①-|
口口口口 |----|
口口口口 |----|
口①①口 |----|
32
②口口① |①-②-|
口③③口 |--③-|
口④④口 |----|
口口口口 |④---|
33
口口口口 |--①-|
②口口② |----|
口口口口 |②---|
口①①口 |----|
34
口口②口 |①---|
口②①② |----|
口口②口 |----|
口口口口 |--②-|
35
口口口口 |----|
口口口口 |----|
口口口口 |----|
口口口口 |----|
36
口①口口 |----|
口口口口 |----|
口口口口 |----|
口口口口 |--①-|
37
口口①口 |①---|
口②③口 |②-③-|
④口口④ |--④-|
口口口口 |----|
38
口口口口 |①---|
口②口口 |----|
②①②口 |----|
口②口口 |--②-|
39
口口口口 |----|
口口口口 |----|
口口口口 |----|
口口口口 |----|
40
口口口口 |----|
口口口口 |----|
口①①口 |----|
口口口口 |--①-|
41
口口口口 |--①-|
口口口口 |----|
口口口口 |----|
口①①口 |----|
42
口①②口 |①-②-|
口③④口 |--③-|
口⑤⑥口 |④---|
口口口口 |⑤-⑥-|
43
口口口口 |--①-|
口口口口 |----|
口口口口 |----|
①口口① |----|
44
口②①口 |①-②-|
口④③口 |--③-|
口⑥⑤口 |④---|
口口口口 |⑤-⑥-|
45
口口口口 |--①-|
口口口口 |②-③-|
口口口口 |----|
口②①③ |----|
46
①口口② |①-②-|
③口口④ |--③-|
⑤口口⑥ |④---|
口口口口 |⑤-⑥-|
47
③口口③ |--①-|
口口口口 |--②-|
口②②口 |--③-|
口①①口 |----|
48
口②①口 |①-②-|
口口口口 |--③-|
口③③口 |----|
口④④口 |④---|
49
口口口口 |--①-|
①口口① |----|
口口口口 |----|
口口口口 |----|
50
口口口口 |①---|
口口③口 |----|
口③①② |----|
口口②口 |②-③-|
51
口口口口 |----|
口口口口 |----|
口口口口 |----|
口口口口 |----|
52
口②口口 |①---|
②①②口 |----|
口②口口 |----|
口口口口 |--②-|
53
口口口口 |----|
口口口口 |----|
口口口口 |----|
口口口口 |----|
54
口口③口 |①---|
口③①② |----|
口口②口 |----|
口口口口 |②-③-|
55
口口口口 |----|
口口口口 |----|
口口口口 |----|
口口口口 |----|
56
②口口① |①---|
口②①口 |----|
口口口口 |②---|
口口口口 |----|
57
③口口③ |--①-|
①③③① |--②-|
②①①② |--③-|
口②②口 |----|
58
⑤①②⑤ |--①-|
口③③口 |②---|
口④④口 |③---|
口口口口 |④-⑤-|
59
口口口口 |--①-|
①口口① |--②-|
②口口② |--③-|
③④④③ |--④-|
60
⑤②①⑤ |--①-|
口③③口 |②---|
口④④口 |③---|
口口口口 |④-⑤-|
61
口口口口 |--①-|
①口口① |--②-|
②④④② |--③-|
③口口③ |--④-|
62
⑤①②⑤ |--①-|
口③③口 |②---|
口④④口 |③---|
口口口口 |④-⑤-|
63
口口口口 |--①-|
①口口① |--②-|
②口口② |--③-|
③口口③ |----|
64
③口口③ |①---|
②③③① |--②-|
口②①口 |----|
口口口口 |--③-|
65
口口口口 |----|
口口口口 |----|
口①②口 |--①-|
口口口口 |--②-|
66
①①⑧⑧ |①-②-|
口⑤口④ |③-④-|
③⑦口口 |⑤-⑥-|
口口⑥② |⑦-⑧-|
67
口①口口 |①-②-|
口⑤⑧④ |③-④-|
③⑦⑥② |⑤-⑥-|
口口口口 |⑦-⑧-|
68
①①④④ |①-②-|
⑤口口⑥ |③-④-|
⑦⑦⑧② |⑤-⑥-|
口③口口 |⑦-⑧-|
69
①口⑧⑧ |①-②-|
口③②口 |③-④-|
口⑦口④ |⑤-⑥-|
口⑤⑥⑥ |⑦-⑧-|
70
①①口口 |①-②-|
口⑦②⑥ |③-④-|
③口④口 |⑤-⑥-|
口⑤⑧⑧ |⑦-⑧-|
71
③口②口 |①-②-|
口⑦⑥⑧ |③-④-|
⑤①口④ |⑤-⑥-|
口口口口 |⑦-⑧-|
72
③口口③ |①---|
口③③口 |--②-|
口②①口 |----|
口①②口 |--③-|
73
口口口口 |----|
口口口口 |----|
口口口口 |----|
口口口口 |----|
74
口口②口 |①---|
口②①② |----|
口口②口 |----|
口口口口 |--②-|
75
口口口口 |----|
口口口口 |----|
口口口口 |----|
口口口口 |----|
76
口①口① |①---|
口口口口 |----|
口①口① |----|
口口口口 |----|


不确定度: 0

最終更新:2012年12月27日 16:38