LUV CAN SAVE U
HIDEKI NAGANUMA

BASIC

Level: 4
BPM: 140
Notes: 367

1
口口口口 |----|
口口口口 |----|
口口口口 |----|
口口口口 |----|
2
①②③口 |①--②|
口口口口 |--③-|
口④⑤口 |--④-|
口口口口 |-⑤--|
3
口口口口 |①--②|
口③②① |--③-|
口口口口 |--④-|
口⑤④口 |-⑤--|
4
口口口口 |①--②|
口口口口 |--③-|
①②③口 |--④-|
口④⑤口 |-⑤--|
5
口口口口 |①--②|
口④④口 |--③-|
口③②① |----|
口口口口 |④---|
6
①口口① |①---|
口口口口 |----|
口口口口 |----|
口口口口 |----|
7
口口口口 |①--②|
口③②① |--③-|
口口口口 |--④-|
口⑤④口 |-⑤--|
8
口口口口 |①--②|
口口口口 |--③-|
①②③口 |--④-|
口④⑤口 |-⑤--|
9
口口口口 |①--②|
口口口口 |--③-|
口③②① |--④-|
口⑤④口 |-⑤--|
10
①②③口 |①--②|
口口口口 |--③-|
口④⑤口 |--④-|
口口口口 |-⑤--|
11
口口口口 |①--②|
口③②① |--③-|
口⑤④口 |--④-|
口口口口 |-⑤--|
12
口①①口 |①--②|
口②②口 |--③-|
③口口③ |--④-|
口④⑤口 |-⑤--|
13
口口口口 |①--②|
口口口口 |--③-|
口③②① |--④-|
口⑤④口 |-⑤--|
14
口①口口 |①---|
②②口口 |②---|
口③口口 |③---|
④④口口 |④---|
15
口口①口 |①---|
口口②② |②---|
口口③口 |③---|
口口④④ |④---|
16
口①口口 |①---|
口②②口 |②---|
口③口口 |③---|
口④④口 |④---|
17
口口口① |①---|
②口口② |②---|
口口口③ |③---|
④口口④ |④---|
18
①口口口 |①---|
②②口口 |②---|
③口口口 |③---|
④④口口 |④---|
19
口口口① |①---|
口口②② |②---|
口口口③ |③---|
口口④④ |④---|
20
口④④口 |①---|
口③口口 |②---|
口②②口 |③---|
口①口口 |④---|
21
口口口① |①---|
②口口② |②---|
口口口③ |③---|
口口口口 |----|
22
①口口② |①---|
①口口③ |②---|
口口口④ |③---|
口口口口 |④---|
23
口口②口 |①---|
口口③口 |②---|
①口④口 |③---|
①口口口 |④---|
24
口口口口 |①---|
口①口② |②---|
口①口③ |③---|
口口口④ |④---|
25
口口口口 |①---|
①口②口 |②---|
①③③口 |③---|
口口口口 |----|
26
①口口① |①---|
口②②口 |②---|
口口③口 |③---|
口④④口 |④---|
27
④④口③ |①---|
②口口② |②---|
①口口① |③---|
口口口口 |④---|
28
口口口口 |①---|
①①④④ |②---|
②②口口 |③---|
口口③口 |④---|
29
口口口口 |①---|
口口口口 |②---|
口口①①
口口②②

口口口口
口③口口
④口口④ |③---|
口口口口 |④---|
30
①口口① |①---|
口②②口 |②---|
口③口口 |③---|
口④④口 |④---|
31
口口口③ |①---|
②④④② |②---|
①口口① |③---|
口口口口 |④---|
32
口口口口 |①--②|
①口口① |--③-|
②④④② |----|
③口口③ |④---|
33
①口口① |①---|
②口口口 |----|
口口口口 |----|
口口口口 |②---|
34
口口口口 |①---|
口口口口 |----|
口口①口 |----|
口口口口 |----|
35
口口口① |①---|
口口②口 |--②-|
口③口口 |----|
口口口口 |③---|
36
口口口口 |①---|
口口口口 |----|
口口口口 |----|
①口口口 |----|
37
①口口口 |①---|
口②口口 |--②-|
口口③口 |----|
口口口口 |③---|
38
口口口口 |①---|
口口口口 |----|
口口口口 |----|
口口口① |----|
39
口口口口 |①---|
口口口口 |----|
口口口口 |----|
口①①口 |----|
40
口口口口 |①---|
口口口口 |----|
口①①口 |----|
口口口口 |----|
41
①口口① |①---|
口口口口 |----|
口口口口 |----|
口口口口 |----|
42
口①口口 |①---|
②②口口 |②---|
口③口口 |③---|
④④口口 |④---|
43
口口①口 |①---|
口口②② |②---|
口口③口 |③---|
口口④④ |④---|
44
口①口口 |①---|
口②②口 |②---|
口③口口 |③---|
口④④口 |④---|
45
口口口① |①---|
②口口② |②---|
口口口③ |③---|
④口口④ |④---|
46
①口口口 |①---|
②②口口 |②---|
③口口口 |③---|
④④口口 |④---|
47
口口口① |①---|
口口②② |②---|
口口口③ |③---|
口口④④ |④---|
48
口④④口 |①---|
口③口口 |②---|
口②②口 |③---|
口①口口 |④---|
49
口口口① |①---|
②口口② |②---|
口口口③ |③---|
口口口口 |----|
50
①口口② |①---|
①口口③ |②---|
口口口④ |③---|
口口口口 |④---|
51
口口②口 |①---|
口口③口 |②---|
①口④口 |③---|
①口口口 |④---|
52
口口口口 |①---|
口①口② |②---|
口①口③ |③---|
口口口④ |④---|
53
口口口口 |①---|
①口②口 |②---|
①口③口 |③---|
口口④口 |④---|
54
口口口口 |①---|
②口口② |②---|
口③③口 |③---|
①口口① |----|
55
①口口① |①---|
口②②口 |②---|
口口③口 |③---|
口④④口 |④---|
56
④④口③ |①---|
②口口② |②---|
①口口① |③---|
口口口口 |④---|
57
口口口口 |①---|
①①④④ |②---|
②②口口 |③---|
口口③口 |④---|
58
口口口口 |①---|
口口口口 |②---|
口口①①
口口②②

口口口口
口③口口
④④④④ |③---|
口口口口 |④---|
59
①口口① |①---|
口②②口 |--②-|
口③③口 |--③-|
口口口口 |----|
60
口口口口 |①---|
②③③② |②---|
口口口口 |----|
①口口① |③---|
61
口④④口 |①--②|
①⑤⑤① |--③-|
②口口② |--④-|
③口口③ |-⑤--|
62
口口口口 |①---|
口口口口 |----|
口①①口 |----|
口②②口 |②---|
63
①②③① |①--②|
口口口口 |--③-|
口④⑤口 |--④-|
口口口口 |-⑤--|
64
口口口口 |①--②|
口③②① |--③-|
口口口口 |--④-|
口⑤④口 |-⑤--|
65
口口口口 |①--②|
口口口口 |--③-|
①②③口 |--④-|
口④⑤口 |-⑤--|
66
口口口口 |①--②|
口口口口 |--③-|
口③②① |--④-|
口⑤④口 |-⑤--|
67
①②③口 |①--②|
口口口口 |--③-|
口④⑤口 |--④-|
口口口口 |-⑤--|
68
口口口口 |①--②|
口③②① |--③-|
口口口口 |--④-|
口⑤④口 |-⑤--|
69
口口口口 |①---|
②口口② |----|
口①①口 |②---|
口口口口 |----|
70
口①①口 |①---|
②口口② |----|
②口口② |----|
口口口口 |②---|
71
口口口口 |①---|
口①①口 |----|
口①①口 |----|
口口口口 |----|


不确定度: 0

最終更新:2012年12月27日 16:36