LUV CAN SAVE U
HIDEKI NAGANUMA

ADVANCED

Level: 8
BPM: 140
Notes: 653

1
口口口口 |----|
口口口口 |----|
口口口口 |----|
口口口口 |----|
2
①①口口 |①--②|
口③④④ |--③-|
②②③口 |--④-|
口口⑤⑤ |-⑤--|
3
口口①① |①--②|
④④③口 |--③-|
口③②② |--④-|
⑤⑤口口 |-⑤--|
4
①①口口 |①--②|
口③④④ |--③-|
②②③口 |--④-|
口口⑤⑤ |-⑤--|
5
口④④口 |①--②|
①①③口 |--③-|
⑤③口⑤ |--④-|
②②口口 |⑤---|
6
①口口① |①--②|
③口②② |③-④-|
口①①④
口口口口

口口口⑥
口口口⑧
⑤口口口 |⑤-⑥-|
⑦口口⑧ |⑦⑧--|
7
口①①口 |①--②|
口③②口 |③-④-|
口口②④
口口口口

口口口口
口口口口
口⑤⑧口 |⑤-⑥-|
口⑦⑧⑥ |⑦⑧--|
8
①口④① |①--②|
③口②② |③-④-|
⑤口口⑥ |⑤-⑥-|
⑦口⑧⑧ |⑦⑧--|
9
口①①口 |①--②|
口③②④ |③-④-|
口⑤②⑥ |⑤-⑥-|
⑨⑦⑧⑩ |⑦⑧⑨⑩|
10
①口口① |①--②|
②②口③ |③-④-|
④口口口
口口口口

⑥口口口
⑧口口口
口口口⑤ |⑤-⑥-|
⑧口口⑦ |⑦⑧--|
11
口①①口 |①--②|
口②③口 |③-④-|
④②口口
口口口口

口口口口
口口口口
口⑧⑤口 |⑤-⑥-|
⑥⑧⑦口 |⑦⑧--|
12
②①①② |①--②|
③②②③ |--③-|
①口口①
口口口口

口口口口
口口口口
④口口口 |--④-|
⑥⑥口⑤ |⑤⑥--|
13
口①①口 |①--②|
④②③口 |③-④-|
口②口口
口口口口

口⑧口口
口⑧口口
⑥口⑤口 |⑤-⑥-|
口口⑦口 |⑦⑧--|
14
④口口① |--①-|
口口③⑤ |②③--|
⑤②口口 |④---|
口口口④ |⑤---|
15
⑤口口口 |--①-|
口口②④ |②③--|
④③口口 |④---|
①口口⑤ |⑤---|
16
⑥②口⑥ |--①-|
口口③口 |②③--|
口④⑤① |④-⑤-|
口⑤④口 |--⑥-|
17
④①口口 |--①-|
①④②⑤ |②-③-|
⑥③⑤② |④-⑤-|
③⑥口口 |⑥---|
18
①口口④ |--①-|
⑤③口口 |②③--|
口口②⑤ |④---|
④口口口 |⑤---|
19
口口口⑤ |--①-|
④②口口 |②③--|
口口③④ |④---|
⑤口口① |⑤---|
20
口口②口 |--①-|
⑤③口⑤ |②③-④|
①⑥⑥口 |---⑤|
口④④口 |--⑥-|
21
口③③口 |①-②-|
口②①口 |--③-|
口口口口 |----|
①口口② |----|
22
口口口② |①-②-|
口口③口 |③-④-|
口④口口
口①①口

口口口口
⑤口口口
口口口口 |⑤---|
⑥⑦⑦⑥ |⑥-⑦-|
23
①口口口 |--①-|
口②⑥④ |②-③-|
口口③口 |④---|
⑤⑥口⑤ |⑤-⑥-|
24
口口口口 |--①-|
口①口口 |----|
口口口口 |----|
口口①口 |----|
25
②口口② |①---|
②口口② |②---|
口口口口
口①①口

口口口口
口口④口
口口③③ |--③-|
口口④口 |-④--|
26
①口①① |①--②|
③口口② |③---|
口口口口
口口口②

口口⑤⑤
口口口口
④口⑦⑦ |④-⑤-|
⑥口口口 |⑥⑦--|
27
口①口口 |①--②|
口③②① |③---|
口口口口
口口②①

口口口口
口口口⑦
口④⑤⑤ |④-⑤-|
口⑥口⑦ |⑥⑦--|
28
①口②② |①--②|
③口①口 |③---|
口口口口
口口①口

口口口口
口口⑤⑤
④口口口 |④-⑤-|
⑥口⑦⑦ |⑥⑦--|
29
口①②① |①--②|
口③⑤⑤ |③---|
口④②① |④-⑤-|
口⑥⑦⑦ |⑥⑦--|
30
①口口① |①--②|
②②口③ |③---|
①口口口
口口口口

口口口口
⑦⑦口口
⑤⑤口④ |④-⑤-|
口口口⑥ |⑥⑦--|
31
①①①口 |①--②|
口口③口 |③---|
口口口口
②②口口

口⑦口口
口⑦口口
⑤⑤④口 |④-⑤-|
口口⑥口 |⑥⑦--|
32
①口口① |①--②|
③口口③ |--③-|
口③③口 |----|
②④④② |④---|
33
口①①口 |①---|
口口②口 |②---|
口口③口 |③---|
口④④口 |④---|
34
①口口① |①---|
②口口口 |②---|
③口口口 |③---|
④口口口 |④---|
35
口①口口 |①---|
口②①口 |②-③-|
口④口③ |④---|
口⑤⑤口 |⑤---|
36
①口口口 |①---|
②口口口 |②---|
③口口口 |③---|
④口口① |④---|
37
口①口① |①---|
口②③口 |②-③-|
口④口⑤ |④---|
口⑤口口 |⑤---|
38
①口口① |①---|
口口口② |②---|
口口口③ |③---|
口口口④ |④---|
39
口口①口 |①---|
口口②口 |②---|
口口③口 |③---|
口①④口 |④---|
40
口口口① |①---|
口口口② |②---|
①口口③ |③---|
口口口④ |④---|
41
口口①口 |①---|
口①②口 |②---|
口口③口 |③---|
口口④口 |④---|
42
④口口① |--①-|
口口③⑤ |②③--|
⑤②口口 |④---|
口口口④ |⑤---|
43
⑤口口口 |--①-|
口口②④ |②③--|
④③口口 |④---|
①口口⑤ |⑤---|
44
⑥②口⑥ |--①-|
口⑤③⑤ |②③--|
④口④① |④--⑤|
口口口口 |--⑥-|
45
④①口口 |--①-|
①④②⑤ |②-③-|
⑥③⑤② |④-⑤-|
③⑥口口 |⑥---|
46
①口口④ |--①-|
⑤③口口 |②③--|
口口②⑤ |④---|
④口口口 |⑤---|
47
口口口⑤ |--①-|
④②口口 |②③--|
口口③④ |④---|
⑤口口① |⑤---|
48
口口②口 |--①-|
④③口④ |②③--|
①⑥⑥口 |④--⑤|
口⑤⑤口 |--⑥-|
49
①②⑤① |①---|
口口口口 |----|
口⑥③口 |②③④-|
口④⑦口 |⑤⑥⑦-|
50
口口口② |①---|
口口口口 |②-③-|
③口口口
①③口①

⑥口④口
口口口④
口口⑤口 |④--⑤|
口口口⑤ |--⑥-|
51
口口口③ |①--②|
口口口口 |--③-|
④②⑤① |④--⑤|
②④①⑤ |----|
52
②④口⑥ |①---|
④①①口 |②-③-|
口⑤口③ |④--⑤|
⑤口③口 |--⑥-|
53
口口口口 |①--②|
口口口口 |----|
①口②口
口①口②

口⑥③口
口口口口
口④⑦口 |③④⑤-|
口⑧⑤口 |⑥⑦⑧-|
54
②口口② |①---|
②口④② |②---|
口口③③ |--③-|
①口④① |-④--|
55
①口①① |①--②|
③口口② |③---|
口口口口
口口口②

口口⑤⑤
口口口口
④口⑦⑦ |④-⑤-|
⑥口口口 |⑥⑦--|
56
口①口口 |①--②|
口③②① |③---|
口口口口
口口②①

口口口口
口口口⑦
口④⑤⑤ |④-⑤-|
口⑥口⑦ |⑥⑦--|
57
①口②② |①--②|
③口①口 |③---|
口口口口
口口①口

口口口口
口口⑤⑤
④口口口 |④-⑤-|
⑥口⑦⑦ |⑥⑦--|
58
口①②① |①--②|
口③⑤⑤ |③---|
口④②① |④-⑤-|
口⑥⑦⑦ |⑥⑦--|
59
①①口① |①---|
③③口② |②-③-|
口口口口
口口口口

⑦口口口
口口口口
⑦口口④ |④-⑤-|
⑤⑤口⑥ |⑥-⑦-|
60
口口①口 |①-②-|
②②③口 |③---|
口口口口
口口口口

口⑦口口
口⑦口口
⑤⑤④口 |④-⑤-|
口口⑥口 |⑥⑦--|
61
①④④① |①--②|
③口口③ |--③-|
口③③口 |--④-|
②⑤⑤② |-⑤--|
62
①口口① |①---|
口①①口 |----|
口口口口 |----|
②口口② |②---|
63
①口口① |①--②|
③口②② |③-④-|
口①①④
口口口口

口口口⑥
口口口⑧
⑤口口口 |⑤-⑥-|
⑦口口⑧ |⑦⑧--|
64
口①①口 |①--②|
口③②口 |③-④-|
口口②④
口口口口

口口口口
口口口口
口⑤⑧口 |⑤-⑥-|
口⑦⑧⑥ |⑦⑧--|
65
①口④① |①--②|
③口②② |③-④-|
⑤口口⑥ |⑤-⑥-|
⑦口⑧⑧ |⑦⑧--|
66
②①①③ |①-②-|
④②③⑤ |③-④-|
口④⑤口 |⑤---|
⑧⑥⑦⑨ |⑥⑦⑧⑨|
67
①口口① |①--②|
②②口③ |③-④-|
④口口口
口口口口

⑥口口口
⑧口口口
口口口⑤ |⑤-⑥-|
⑧口口⑦ |⑦⑧--|
68
口①①口 |①--②|
口②③口 |③-④-|
④②口口
口口口口

口口口口
口口口口
口⑧⑤口 |⑤-⑥-|
⑥⑧⑦口 |⑦⑧--|
69
①口口口 |①-②-|
口口口④ |③-④-|
③口口口
口口口②

⑦口口⑦
口⑤口口
口口⑥口 |⑤-⑥-|
口口口口 |-⑦--|
70
口口②口 |①---|
口口口口 |②---|
口口口口
①口口①

口口口口
口口口口
口③③口 |----|
③口口③ |③---|
71
①口口① |①---|
口①①口 |----|
口口口口 |----|
口口口口 |----|


不确定度: 0

最終更新:2012年12月27日 16:36