Little Star
REDALiCE feat. Ayumi Nomiya

BASIC

Level: 5
BPM: 183
Notes: 272

1
口口口口 |----|
口口口口 |----|
口口口口 |----|
口口口口 |----|
2
口口口口 |----|
口口口口 |----|
口口口口 |----|
口口口口 |----|
3
口口口口 |①---|
口口口口 |----|
②口口① |②---|
口口口口 |----|
4
口口③口 |①---|
口②①口 |②---|
口口口口 |③---|
口口口口 |----|
5
①口口② |①---|
口口口口 |----|
口口口口 |②---|
口口口口 |----|
6
口口口口 |①---|
口①②口 |②---|
口③口口 |③---|
口口口口 |----|
7
口口口口 |①---|
口口口口 |----|
②口口① |②---|
口口口口 |----|
8
口④③口 |①---|
口②①口 |②---|
口口口口 |③---|
口口口口 |④---|
9
②口口① |①---|
④口口③ |②---|
口口口口 |③---|
口口口口 |④---|
10
口口口口 |①--②|
口口口口 |--③-|
②④③① |④---|
口口口口 |----|
11
③口口口 |①---|
②口口口 |--②-|
①口口口 |----|
口口口口 |③---|
12
口①口口 |①---|
口②口口 |----|
口③口口 |②---|
口口口口 |③---|
13
口口口④ |①---|
口口口③ |--②-|
口口②口 |----|
口①口口 |③-④-|
14
口口口口 |----|
口口口口 |----|
口口口口 |----|
口口口口 |----|
15
口口口③ |①---|
口口口② |--②-|
口口口① |----|
口口口口 |③---|
16
口口①口 |①---|
口口②口 |----|
口口③口 |②---|
口口口口 |③---|
17
④口口口 |①---|
③口口口 |--②-|
口②口口 |----|
口口①口 |③-④-|
18
口口口口 |----|
口口口口 |----|
口口口口 |----|
①口口口 |①---|
19
口口口口 |①---|
口口口口 |②-③-|
④②③口 |----|
口口口① |④---|
20
口口口口 |①---|
④②③口 |②-③-|
口口口① |----|
口口口口 |④---|
21
①③②④ |①---|
口口口口 |②-③-|
口口口口 |----|
口口口口 |④---|
22
口口口口 |①---|
口②③① |②-③-|
口口口口 |----|
④口口口 |④---|
23
口口口口 |①---|
口口口口 |②-③-|
④②③口 |----|
口口口① |④---|
24
口口口口 |①---|
口②③口 |②-③-|
口④口① |----|
口口口口 |④---|
25
口口口口 |①--②|
口口③口 |--③-|
口口②口 |----|
口口①口 |----|
26
口口口口 |①--②|
口③口口 |--③-|
口②口口 |----|
口①口口 |----|
27
口③③口 |①--②|
口②②口 |--③-|
口①①口 |----|
口口口口 |----|
28
①口口② |①---|
口③④口 |--②-|
口口口口 |----|
口口口口 |③-④-|
29
口口口口 |----|
口口口口 |----|
口口口口 |----|
口口口口 |----|
30
口②①口 |----|
口口③口 |①---|
口口口口 |②---|
口口口口 |③---|
31
①口②口 |①---|
③口④口 |②---|
口口口口 |③---|
口口口口 |④---|
32
口口口口 |①---|
口口口口 |②---|
①口②口 |③---|
③口④口 |④---|
33
口口口口 |①---|
口口口口 |②---|
口③口④ |③---|
口①口② |④---|
34
口③口④ |①---|
口①口② |②---|
口口口口 |③---|
口口口口 |④---|
35
①口②口 |①---|
口③口④ |②---|
口口口口 |③---|
口口口口 |④---|
36
口口口口 |①---|
口口口口 |②---|
①口②口 |③---|
口③口④ |④---|
37
口口口口 |①---|
④口口④ |②-③-|
②⑤③① |--④-|
口口口口 |--⑤-|
38
口②口口 |--①-|
口口①口 |--②-|
口口口口 |----|
口口口口 |----|
39
①口②口 |①---|
③口④口 |②---|
口口口口 |③---|
口口口口 |④---|
40
口口口口 |①---|
口口口口 |②---|
①口②口 |③---|
③口④口 |④---|
41
口口口口 |①---|
口口口口 |②---|
口③口④ |③---|
口①口② |④---|
42
口③口④ |①---|
口①口② |②---|
口口口口 |③---|
口口口口 |④---|
43
①口②口 |①---|
③口口口 |--②-|
口口口口 |----|
口口口口 |③---|
44
口口口口 |--①-|
口口①口 |----|
②④③口 |②---|
口口口口 |③-④-|
45
口口口口 |----|
口口口口 |----|
口口口口 |----|
口①口口 |①---|
46
③④口⑤ |①---|
口口②口 |②---|
口口①口 |③-④-|
口口口口 |--⑤-|
47
口口口口 |----|
口口口口 |----|
口口口口 |----|
口口口口 |----|
48
口口口口 |①---|
口口口口 |----|
口口口口 |----|
①口口口 |----|
49
口口口口 |①---|
口口口口 |----|
口①口口 |----|
口口口口 |----|
50
口口口口 |①---|
①口口口 |----|
口口口口 |----|
口口口口 |----|
51
口①口口 |①---|
口口口口 |----|
口口口口 |----|
口口口口 |----|
52
口口口口 |①---|
口口口口 |----|
口口口口 |----|
口口口① |----|
53
口口口口 |①---|
口口口口 |----|
口口①口 |----|
口口口口 |----|
54
口口口口 |①---|
口口口① |----|
口口口口 |----|
口口口口 |----|
55
口口口② |①---|
口口①口 |----|
口口口口 |②---|
口口口口 |----|
56
口①①口 |①---|
口口口口 |----|
口口口口 |----|
口口口口 |----|
57
口口口口 |①---|
①口口① |----|
口口口口 |----|
口口口口 |----|
58
口口口口 |①---|
口口口口 |----|
口①①口 |----|
口口口口 |----|
59
口口口口 |①---|
口口口口 |----|
口口口口 |----|
①口口① |----|
60
口口口口 |①---|
口口口口 |----|
口口口口 |----|
口①①口 |----|
61
口口口口 |①---|
口口口口 |----|
①口口① |----|
口口口口 |----|
62
口②②口 |①---|
口①①口 |----|
口口口口 |②---|
口口口口 |----|
63
①口口① |①---|
②口口② |②---|
③口口③ |③---|
④口口④ |④---|
64
口③②口 |①---|
口口④口 |②---|
口①①口 |③---|
口口口口 |④---|
65
①口②口 |①---|
③口④口 |②---|
口口口口 |③---|
口口口口 |④---|
66
口口口口 |①---|
口口口口 |②---|
①口②口 |③---|
③口④口 |④---|
67
口口口口 |①---|
口口口口 |②---|
口③口④ |③---|
口①口② |④---|
68
口③口④ |①---|
口①口② |②---|
口口口口 |③---|
口口口口 |④---|
69
①口②口 |①---|
口③口④ |②---|
口口口口 |③---|
口口口口 |④---|
70
口口口口 |①---|
口口口口 |②---|
①口②口 |③---|
口③口④ |④---|
71
口口口口 |①---|
④口口④ |②-③-|
②⑤③① |--④-|
口口口口 |--⑤-|
72
口②口口 |--①-|
口口①口 |--②-|
口口口口 |----|
口口口口 |----|
73
①口②口 |①---|
③口④口 |②---|
口口口口 |③---|
口口口口 |④---|
74
口口口口 |①---|
口口口口 |②---|
①口②口 |③---|
③口④口 |④---|
75
口口口口 |①---|
口口口口 |②---|
口③口④ |③---|
口①口② |④---|
76
口③口④ |①---|
口①口② |②---|
口口口口 |③---|
口口口口 |④---|
77
①口②口 |①---|
③口口口 |--②-|
口口口口 |----|
口口口口 |③---|
78
口口口口 |--①-|
口口①口 |----|
②④③口 |②---|
口口口口 |③-④-|
79
口口口口 |----|
口口口口 |----|
口口口口 |----|
口①口口 |①---|
80
③④口⑤ |①---|
口口②口 |②---|
口口①口 |③-④-|
口口口口 |--⑤-|
81
口口口口 |----|
口口口口 |----|
口口口口 |----|
口口口口 |----|
82
口口口口 |①---|
口口口口 |----|
②口口① |②---|
口口口口 |----|
83
口口③口 |①---|
口②①口 |②---|
口口口口 |③---|
口口口口 |----|
84
①口口② |①---|
口口口口 |----|
口口口口 |②---|
口口口口 |----|
85
口口口口 |①---|
口①②口 |②---|
口③口口 |③---|
口口口口 |----|
86
口口口口 |①---|
口口口口 |----|
②口口① |②---|
口口口口 |----|
87
口④③口 |①---|
口②①口 |②---|
口口口口 |③---|
口口口口 |④---|
88
②口口① |①---|
④口口③ |②---|
口口口口 |③---|
口口口口 |④---|
89
口口口口 |①--②|
口口口口 |--③-|
②④③① |④---|
口口口口 |----|


不确定度: 0

最終更新:2012年12月27日 16:35