Little Star
REDALiCE feat. Ayumi Nomiya

ADVANCED

Level: 7
BPM: 183
Notes: 452

1
口口口口 |----|
口口口口 |----|
口口口口 |----|
口口口口 |----|
2
口口④口 |--①-|
⑤③口⑥ |--②-|
口口②口 |③-④-|
①口口① |⑤-⑥-|
3
①口口① |①---|
口②②口 |----|
口口口口 |②---|
口口口口 |----|
4
③口口③ |①---|
②口口② |②---|
①口口① |③---|
口口口口 |----|
5
口口口口 |①---|
口口口口 |----|
口②①口 |②---|
口口口口 |----|
6
④口③④ |①---|
口②口口 |②-③-|
①口口① |④---|
口口口口 |----|
7
口口口口 |①---|
口口口口 |----|
口②①口 |②---|
口口口口 |----|
8
③④④③ |①---|
②口口② |②---|
①口口① |③---|
口口口口 |④---|
9
口口口口 |①---|
口①①口 |②---|
口②②口 |③---|
④③③④ |④---|
10
口④④口 |①--②|
①③口① |--③-|
口口②口 |④---|
口口口口 |----|
11
口口口口 |①---|
③口口口 |--②-|
②口口口 |----|
①口口口 |③---|
12
①①口口 |①---|
口口口口 |----|
口④⑤口 |②-③-|
口②③口 |④-⑤-|
13
④口②口 |①---|
③①口口 |--②-|
口口口口 |----|
口口口口 |③-④-|
14
口口口③ |①-②-|
口口②① |③---|
口口口口 |----|
口口口口 |----|
15
口口口口 |①---|
口口口③ |--②-|
口口口② |----|
口口口① |③---|
16
口口①① |①---|
口口口口 |----|
口⑤④口 |②-③-|
口③②口 |④-⑤-|
17
口②口④ |①---|
口口①③ |--②-|
口口口口 |----|
口口口口 |③-④-|
18
①②口口 |①--②|
③③口口 |--③-|
口⑤口口 |----|
口口口④ |④-⑤-|
19
口口③口 |①---|
口口②① |②-③-|
口口⑤口 |----|
④口口口 |④-⑤-|
20
口③口口 |①---|
①②口口 |②-③-|
口口口口 |----|
⑤口口④ |④-⑤-|
21
④口口④ |①---|
口③口口 |②-③-|
①口②① |----|
口口口口 |④---|
22
口③口口 |①---|
口口②口 |②-③-|
①⑤口① |----|
口口口④ |④-⑤-|
23
口口③口 |①---|
口口②① |②-③-|
口口⑤口 |----|
④口口口 |④-⑤-|
24
口③口口 |①---|
①②口口 |②-③-|
④口口④ |----|
口口口口 |④---|
25
③③口口 |①--②|
口②口口 |--③-|
口①口口 |----|
口口口口 |----|
26
口口③③ |①--②|
口口②口 |--③-|
口口①口 |----|
口口口口 |----|
27
③③③③ |①--②|
口②②口 |--③-|
口①①口 |----|
口口口口 |----|
28
口④④口 |①---|
口③③口 |--②-|
②口口① |----|
口口口口 |③-④-|
29
口口口口 |----|
口口口口 |----|
口口口口 |----|
口口口口 |----|
30
口口口口 |----|
口口③口 |①---|
口②口口 |②---|
口口①口 |③---|
31
①口口④ |①-②-|
⑦口口⑧ |③-④-|
③口②口 |⑤-⑥-|
口⑤口⑥ |⑦-⑧-|
32
③口⑧④ |①-②-|
口口②口 |③-④-|
⑦⑤口口 |⑤-⑥-|
①口口⑥ |⑦-⑧-|
33
③⑦口口 |①-②-|
口口②口 |③-④-|
口口⑥④ |⑤-⑥-|
⑤①口⑧ |⑦-⑧-|
34
口口⑥口 |①-②-|
③口口② |③-④-|
口⑦口⑧ |⑤-⑥-|
⑤①④口 |⑦-⑧-|
35
③①口⑧ |①-②-|
口⑦口⑥ |③-④-|
⑤口②口 |⑤-⑥-|
口口④口 |⑦-⑧-|
36
口③口口 |①-②-|
①口⑥⑧ |③-④-|
⑦口②口 |⑤-⑥-|
口⑤口④ |⑦-⑧-|
37
②④④③ |①---|
口口口口 |②-③-|
口①①口 |--④-|
口⑤⑤口 |--⑤-|
38
口口口口 |--①-|
口②②口 |--②-|
口①①口 |----|
口口口口 |----|
39
口口口③ |①-②-|
⑥口口⑦ |③-④-|
②口①口 |⑤-⑥-|
⑧④口⑤ |⑦-⑧-|
40
②口⑦③ |①-②-|
口口①口 |③-④-|
⑥④口口 |⑤-⑥-|
口⑧口⑤ |⑦-⑧-|
41
②⑥口口 |①-②-|
口口①口 |③-④-|
口口⑤③ |⑤-⑥-|
④⑧口⑦ |⑦-⑧-|
42
口⑧⑤口 |①-②-|
②口口① |③-④-|
口⑥口⑦ |⑤-⑥-|
④口③口 |⑦-⑧-|
43
口口口④ |①-②-|
⑥②③口 |--③-|
口⑤①口 |④---|
口口口口 |⑤-⑥-|
44
①口②口 |--①-|
⑥⑤⑥口 |②-③-|
③口④口 |④---|
口口口口 |⑤-⑥-|
45
口口口口 |----|
口口口口 |----|
口口口口 |----|
口①口口 |①---|
46
⑤④③⑤ |①---|
口②口口 |②---|
口口①口 |③-④-|
口口口口 |--⑤-|
47
口口口口 |----|
口口口口 |----|
口口口口 |----|
口口口口 |----|
48
①口口口 |①---|
口口口口 |----|
口口口口 |----|
口口口口 |----|
49
口口口① |①---|
口口口口 |----|
口口口口 |----|
口口口口 |----|
50
口口口口 |①---|
口①口口 |----|
口口口口 |----|
口口口口 |----|
51
口口口口 |①---|
口口①口 |----|
口口口口 |----|
口口口口 |----|
52
口口口口 |①---|
口口口口 |----|
①口口口 |----|
口口口口 |----|
53
口口口口 |①---|
口口口口 |----|
口口口① |----|
口口口口 |----|
54
口口口口 |①---|
口口口口 |----|
口口口口 |----|
口①口口 |----|
55
口口⑤口 |①-②-|
口④口口 |--③-|
口③②口 |④---|
口口①口 |⑤---|
56
①口口① |①---|
口口口口 |----|
口口口口 |----|
口口口口 |----|
57
口口口口 |①---|
口①①口 |----|
口口②口 |----|
口口口口 |--②-|
58
口口口口 |①---|
口口口口 |----|
①口口① |----|
口②口口 |--②-|
59
口⑤口口 |①---|
口③④口 |②---|
口①②口 |③---|
口口口口 |④-⑤-|
60
口口①口 |①---|
口口口口 |----|
口口口口 |----|
口口口口 |----|
61
口口口口 |①---|
①口口① |----|
口口口口 |----|
口口口口 |----|
62
口口口口 |①---|
口口口口 |----|
①口口① |②---|
②口口② |----|
63
口⑧⑦口 |①-②-|
口⑥⑤口 |③-④-|
口④③口 |⑤-⑥-|
口②①口 |⑦-⑧-|
64
口口口口 |①---|
①口④① |②---|
口③口口 |③---|
口口②口 |④---|
65
①口口④ |①-②-|
⑦口口⑧ |③-④-|
③口②口 |⑤-⑥-|
口⑤口⑥ |⑦-⑧-|
66
③口⑧④ |①-②-|
口口②口 |③-④-|
⑦⑤口口 |⑤-⑥-|
①口口⑥ |⑦-⑧-|
67
③⑦口口 |①-②-|
口口②口 |③-④-|
口口⑥④ |⑤-⑥-|
⑤①口⑧ |⑦-⑧-|
68
口口⑥口 |①-②-|
③口口② |③-④-|
口⑦口⑧ |⑤-⑥-|
⑤①④口 |⑦-⑧-|
69
③①口⑧ |①-②-|
口⑦口⑥ |③-④-|
⑤口②口 |⑤-⑥-|
口口④口 |⑦-⑧-|
70
口③口口 |①-②-|
①口⑥⑧ |③-④-|
⑦口②口 |⑤-⑥-|
口⑤口④ |⑦-⑧-|
71
②④④③ |①---|
口口口口 |②-③-|
口①①口 |--④-|
口⑤⑤口 |--⑤-|
72
口口口口 |--①-|
口②②口 |--②-|
口①①口 |----|
口口口口 |----|
73
口口口③ |①-②-|
⑥口口⑦ |③-④-|
②口①口 |⑤-⑥-|
⑧④口⑤ |⑦-⑧-|
74
②口⑦③ |①-②-|
口口①口 |③-④-|
⑥④口口 |⑤-⑥-|
口⑧口⑤ |⑦-⑧-|
75
②⑥口口 |①-②-|
口口①口 |③-④-|
口口⑤③ |⑤-⑥-|
④⑧口⑦ |⑦-⑧-|
76
口⑧⑤口 |①-②-|
②口口① |③-④-|
口⑥口⑦ |⑤-⑥-|
④口③口 |⑦-⑧-|
77
口口口④ |①-②-|
⑥②③口 |--③-|
口⑤①口 |④---|
口口口口 |⑤-⑥-|
78
①口②口 |--①-|
⑥⑤⑥口 |②-③-|
③口④口 |④---|
口口口口 |⑤-⑥-|
79
口口口口 |----|
口口口口 |----|
口口口口 |----|
口①口口 |①---|
80
⑤④③⑤ |①---|
口②口口 |②---|
口口①口 |③-④-|
口口口口 |--⑤-|
81
口口口口 |----|
口口口口 |----|
口口口口 |----|
口口口口 |----|
82
①口口① |①---|
口②②口 |----|
口口口口 |②---|
口口口口 |----|
83
③口口③ |①---|
②口口② |②---|
①口口① |③---|
口口口口 |----|
84
口口口口 |①---|
口口口口 |----|
口②①口 |②---|
口口口口 |----|
85
④口③④ |①---|
口②口口 |②-③-|
①口口① |④---|
口口口口 |----|
86
口口口口 |①---|
口口口口 |----|
口②①口 |②---|
口口口口 |----|
87
③④④③ |①---|
②口口② |②---|
①口口① |③---|
口口口口 |④---|
88
口口口口 |①---|
口①①口 |②---|
口②②口 |③---|
④③③④ |④---|
89
口④④口 |①--②|
①③口① |--③-|
口口②口 |④---|
口口口口 |----|


不确定度: 0

最終更新:2012年12月27日 16:35