サブリナ
家入レオ

BASIC

Level: 3
BPM: 136
Notes: 193

1
口口口口 |----|
口口口口 |----|
口口口口 |----|
口口口口 |----|
2
口口口口 |----|
口口口口 |----|
口口口口 |----|
口口口口 |----|
3
口口口口 |----|
口口口口 |----|
口口口口 |----|
口口口口 |----|
4
口口口口 |----|
口口口口 |----|
口口口口 |----|
口口口口 |----|
5
口口口口 |----|
口口口口 |----|
口口口口 |----|
口口口口 |----|
6
口口口口 |①---|
口①②口 |----|
口口口口 |②---|
口口口口 |----|
7
口口口口 |①---|
口口口口 |----|
口①②口 |②---|
口口口口 |----|
8
口口口口 |①---|
口口口口 |----|
口口口口 |②---|
口①②口 |----|
9
口口口口 |①---|
口①①口 |----|
口②②口 |②---|
口口口口 |----|
10
口口口口 |----|
口口口口 |----|
口口口口
口口口口
11
口口口口 |①---|
②口口口 |----|
①口口口 |②---|
口口口口 |----|
12
口口口口 |①---|
口②口口 |----|
口①口口 |②---|
口口口口 |----|
13
口口口口 |①---|
口口口② |----|
口口口① |②---|
口口口口 |----|
14
口口口口 |①---|
口口②口 |----|
口口①口 |②---|
口口口口 |----|
15
口口口口 |①---|
②口口口 |----|
口口口口 |②---|
①口口口 |----|
16
口口口口 |①---|
口②口口 |----|
口口口口 |②---|
口①口口 |----|
17
口口口口 |①---|
口口口② |----|
口口口口 |②---|
口口口① |----|
18
口口口口 |①---|
口口②口 |----|
口口口口 |②---|
口口①口 |----|
19
口口口口 |①---|
①①②② |----|
口口口口 |②---|
口口口口 |----|
20
口口口口 |①---|
口②②口 |----|
口①①口 |②---|
口口口口 |----|
21
①①②② |①---|
口口口口 |----|
口口口口 |②---|
口口口口 |----|
22
口口口口 |①---|
口②②口 |----|
口①①口 |②---|
口口口口 |----|
23
口口口口 |①---|
①②口口 |----|
口口口口 |②---|
口口口口 |----|
24
口口口口 |①---|
口口①② |----|
口口口口 |②---|
口口口口 |----|
25
口口口口 |①---|
口口口口 |----|
口口口口 |----|
口①①口 |----|
26
口口口口 |①---|
口口口口 |----|
①口口① |----|
口口口口 |----|
27
口口口口 |①---|
①②③④ |②---|
口口口口 |③---|
口口口口 |④---|
28
口口口口 |①---|
口口口口 |②---|
④③②① |③---|
口口口口 |④---|
29
口②④口 |①---|
口①③口 |②---|
口口口口 |③---|
口口口口 |④---|
30
口口口口 |①---|
口①③口 |②---|
口②④口 |③---|
口口口口 |④---|
31
口口口口 |①---|
①②③④ |②---|
口口口口 |③---|
口口口口 |④---|
32
口口口口 |①---|
口口口口 |②---|
④③②① |③---|
口口口口 |④---|
33
②口口② |①---|
口①①口 |----|
口口口口 |②---|
口口口口 |----|
34
口①①口 |①---|
口②②口 |----|
口口口口 |②---|
口口口口 |----|
35
口口口口 |①---|
①②③④ |②---|
口口口口 |③---|
口口口口 |④---|
36
口口口口 |①---|
口口口口 |②---|
④③②① |③---|
口口口口 |④---|
37
口②④口 |①---|
口①③口 |②---|
口口口口 |③---|
口口口口 |④---|
38
口口口口 |①---|
口①③口 |②---|
口②④口 |③---|
口口口口 |④---|
39
④口口口 |①---|
③口口口 |②---|
②口口口 |③---|
①口①口 |④---|
40
口①口① |①---|
口口口② |②---|
口口口③ |③---|
口口口④ |④---|
41
口④④口 |①---|
口③口口 |②---|
口②口口 |③---|
口①①口 |④---|
42
口口口口 |①---|
①③口① |②---|
②④口口 |③---|
口口口口 |④---|
43
口口口口 |①---|
口口③① |②---|
口口④② |③---|
口口口口 |④---|
44
口④口口 |①---|
口③口口 |②---|
口②口口 |③---|
口①①口 |④---|
45
口口①口 |①---|
口口②口 |②---|
口口③口 |③---|
口④④口 |④---|
46
口口口口 |①---|
①③口口 |②---|
②④口口 |③---|
口口口口 |④---|
47
口口口口 |①---|
口口③① |②---|
口口④② |③---|
口口口口 |④---|
48
口④口口 |①---|
口③口口 |②---|
口②口口 |③---|
口①①口 |④---|
49
口口①口 |①---|
口口②口 |②---|
口口③口 |③---|
口④④口 |④---|
50
口口口口 |①---|
①③口口 |②---|
②④口口 |③---|
口口口口 |④---|
51
口口口口 |①---|
口口③① |②---|
口口④② |③---|
口口口口 |④---|
52
口④口口 |①---|
口③口口 |②---|
口②口口 |③---|
口①①口 |④---|
53
口口①口 |①---|
口口②口 |②---|
口口③口 |③---|
口④④口 |④---|
54
口口口口 |①---|
①③口口 |②---|
②④口口 |③---|
口口口口 |④---|
55
口口口口 |①---|
口口③① |②---|
口口④② |③---|
口口口口 |④---|
56
口④口口 |①---|
口③口口 |②---|
口②口口 |③---|
口①①口 |④---|
57
口口①口 |①---|
口口②口 |②---|
口口③口 |③---|
口④④口 |④---|
58
口口口口 |①---|
①③③① |--②-|
口口口口 |----|
口②②口 |③---|


不确定度: 0

最終更新:2012年12月27日 16:34