サブリナ
家入レオ

ADVANCED

Level: 5
BPM: 136
Notes: 345

1
口口口口 |----|
口口口口 |----|
口口口口 |----|
口口口口 |----|
2
口口口口 |----|
口口口口 |----|
口口口口 |----|
口口口口 |----|
3
口口口口 |----|
口口口口 |----|
口口口口 |----|
口口口口 |----|
4
口口口口 |----|
口口口口 |----|
口口口口 |----|
口口口口 |----|
5
口口口口 |----|
①①②② |----|
③③口口 |--①-|
口口口口 |②-③-|
6
口口口口 |①---|
口口口口 |----|
口口①① |----|
口口口口 |----|
7
④①②口 |--①-|
口③③口 |--②-|
④①②口 |--③-|
口口口口 |--④-|
8
口口口① |①---|
口口口口 |----|
②②口① |--②-|
④④③③ |③-④-|
9
口口口口 |①---|
口口口口 |----|
口口①① |----|
口口口口 |----|
10
口口口口 |----|
口口口口 |----|
口口口口
口口口口
11
口口口口 |①---|
口②③口 |--②-|
口口口口 |③---|
①口口① |----|
12
口口口口 |----|
口口口口 |----|
口口口口 |----|
口①口口 |--①-|
13
口口口口 |①-②-|
④②①④ |--③-|
③口口③ |--④-|
口口⑤口 |--⑤-|
14
口口口口 |①-②-|
④①②④ |--③-|
口口口口 |--④-|
③口口③ |----|
15
口②③口 |①---|
口口口口 |--②-|
口①①口 |③---|
口口口口 |----|
16
口口口口 |----|
口口口口 |----|
口口②口 |----|
口①口口 |①-②-|
17
⑤①①⑤ |①-②-|
口②口口 |--③-|
口④④口 |--④-|
口③③口 |--⑤-|
18
①口口② |----|
口①②口 |----|
③③口口 |①-②-|
口口口口 |--③-|
19
④④口口 |①---|
口口②② |--②-|
口口口口 |③---|
①口口③ |--④-|
20
口③③口 |①---|
口口口口 |--②-|
①②②口 |③---|
口口口口 |----|
21
④④口口 |①---|
口口②② |--②-|
①①口口 |③---|
口口口③ |--④-|
22
口③③口 |①---|
口口口口 |--②-|
①②②口 |③---|
口口口口 |----|
23
①口口① |①---|
口①①口 |②-③-|
口②口口
口口③口

⑤口口⑤
口口④口
口口口口 |--④-|
口口口口 |--⑤-|
24
口口口口 |----|
口①口口 |①---|
口③③口 |②-③-|
口②②口 |----|
25
口口口口 |----|
口口口口 |①---|
口口口口
①口口口

口口口口
口③②口
口口口口 |②-③-|
④口口④ |--④-|
26
口口口口 |--①-|
口②②口 |--②-|
①口口① |----|
口口口口 |----|
27
①①①① |①---|
口口口口 |②---|
口②口口
口口②口

④口口④
口口口口
口口③口 |③---|
口③口口 |--④-|
28
口口口口 |--①-|
口口①口 |②---|
口②③口 |③---|
口③②口 |----|
29
①③①③ |①-②-|
⑤⑦⑤⑦ |③-④-|
②④②④ |⑤-⑥-|
⑥⑧⑥⑧ |⑦-⑧-|
30
①①②② |①-②-|
③口口口 |--③-|
口口口③
口口口口

⑤⑤⑤⑤
口口口④
④口口口 |--④-|
口口口口 |--⑤-|
31
④口口④ |--①-|
口口①口 |②---|
口②③口 |③---|
口③②口 |--④-|
32
口口④口 |--①-|
口口①口 |②---|
口②③口 |③---|
口③②口 |--④-|
33
口②④口 |①---|
①口口③ |--②-|
口①③口 |③---|
口口口口 |--④-|
34
口②口口 |①---|
口①③口 |--②-|
口口口口 |③---|
口①③口 |----|
35
①①①① |①---|
口口口口 |②---|
口②口口
口口②口

④口口④
口口口口
口口③口 |③---|
口③口口 |--④-|
36
口口口口 |--①-|
口口①口 |②---|
口②③口 |③---|
口③②口 |----|
37
①③①③ |①-②-|
⑤⑦⑤⑦ |③-④-|
②④②④ |⑤-⑥-|
⑥⑧⑥⑧ |⑦-⑧-|
38
①①②② |①-②-|
③口口④ |--③-|
④口口③ |--④-|
口口口口 |----|
39
口④口口 |①---|
⑤口②口 |②-③-|
口①③口 |--④-|
口③①⑤ |--⑤-|
40
②②②② |--①-|
口口口① |--②-|
口口口口 |----|
①口口口 |----|
41
口口口口 |----|
①①②② |----|
③③口口 |--①-|
口口口口 |②-③-|
42
口口口口 |①---|
口口口口 |----|
口口①① |----|
口口口口 |----|
43
④①②口 |--①-|
口③③口 |--②-|
④①②口 |--③-|
口口口口 |--④-|
44
口口口① |①---|
口口口口 |----|
②②口① |--②-|
④④③③ |③-④-|
45
口口口口 |①---|
②②③③ |----|
④④①① |--②-|
口口口口 |③-④-|
46
口口口口 |①---|
口口口口 |----|
口口①① |----|
口口口口 |----|
47
④①②口 |--①-|
口③③口 |--②-|
④①②口 |--③-|
口口口口 |--④-|
48
口口口① |①---|
口口口口 |----|
②②口① |--②-|
④④③③ |③-④-|
49
②②③③ |①---|
口口口口 |----|
④④①① |--②-|
口口口口 |③-④-|
50
口口口口 |①---|
口口口口 |----|
口口①① |----|
口口口口 |----|
51
④①②口 |--①-|
③③③③ |--②-|
④①②口 |--③-|
口口口口 |--④-|
52
口口口① |①---|
口口口口 |----|
②②口① |--②-|
④④③③ |③-④-|
53
②②③③ |①---|
口口口口 |----|
④④①① |--②-|
口口口口 |③-④-|
54
口口口口 |①---|
口口口口 |----|
口口①① |----|
口口口口 |----|
55
④①②口 |--①-|
③③③③ |--②-|
④①②口 |--③-|
口口口口 |--④-|
56
口口口① |①---|
口口口口 |----|
②②口① |--②-|
④④③③ |③-④-|
57
口口口口 |①---|
口口口口 |----|
口口①① |----|
口口口口 |----|
58
口口口口 |①---|
①③③① |--②-|
口口口口 |----|
口②②口 |③---|


不确定度: 0

最終更新:2012年12月27日 16:33