サブリナ
家入レオ

EXTREME

Level: 8
BPM: 136
Notes: 540

1
口口口口 |----|
口口口口 |----|
口口口口 |----|
口口口口 |----|
2
口口口口 |----|
口口口口 |----|
口口口口 |----|
口口口口 |----|
3
口口口口 |----|
口口口口 |----|
口口口口 |----|
口口口口 |----|
4
口口口口 |----|
口口口口 |----|
口口口口 |----|
口口口口 |----|
5
口口②② |----|
口口③口 |----|
②②口口 |--①-|
①口口口 |②-③-|
6
口①口口 |①---|
①口口② |②---|
③口口① |③---|
口口①④ |④---|
7
②口口③ |①-②-|
口口①口 |--③-|
口③②口
口口口口

⑤口口口
口④④口
⑤口口口 |--④-|
口口口口 |--⑤-|
8
口口口① |①---|
口口口口 |②---|
口口口①
口口②口

③口口④
口口⑤⑤
口⑥口口 |③-④-|
⑤⑤口口 |⑤-⑥-|
9
②①口② |①---|
①口口口 |②---|
④口口① |③---|
③口①③ |④---|
10
口口口口 |①---|
口口口口 |②---|
口①②口
口口口口
11
口口①口 |①---|
②①②① |--②-|
口口口口 |③---|
口③口③ |----|
12
口口口口 |----|
口口口口 |----|
口口口口 |----|
①口口口 |--①-|
13
①口①口 |①-②-|
口②口② |--③-|
④⑤④口 |--④-|
口③口③ |--⑤-|
14
①口①口 |①-②-|
④②④② |--③-|
口口口口 |--④-|
口③口③ |----|
15
口口①口 |①---|
②①②① |--②-|
口口口口 |③---|
口③口③ |----|
16
口口口口 |----|
口口口口 |----|
口口②口 |----|
①口口口 |①-②-|
17
①口①口 |①-②-|
③②⑤② |--③-|
口④口④ |--④-|
③口⑤口 |--⑤-|
18
口②②口 |----|
口口口口 |----|
③③③口 |①-②-|
口①①口 |--③-|
19
④④④口 |①---|
口②②② |--②-|
口口口口 |③---|
①口口③ |--④-|
20
③③③③ |①---|
④口口口 |--②-|
口口口口 |③---|
①②②口 |--④-|
21
④④④口 |①---|
口②②② |--②-|
①①①口 |③---|
口口口③ |--④-|
22
③③③③ |①---|
口口口口 |--②-|
口②②口 |③---|
①口④口 |--④-|
23
口②口口 |①---|
①口③① |②-③-|
口①①口
③口口口

⑤口口④
⑤④口⑤
口口口⑤ |--④-|
口口口口 |--⑤-|
24
口①①口 |----|
口口口口 |①---|
口③③口 |②-③-|
②口口② |----|
25
口口口口 |①-②-|
①口口① |③---|
②口口②
③③③③

口口口口
口④⑤口
⑥口口口 |④-⑤-|
口⑥口口 |--⑥-|
26
口②②口 |--①-|
口口口① |--②-|
口口①口
口口口口

口口口口
口口口口
口口③口 |----|
口口口口 |--③-|
27
①①①① |①---|
②②口口 |②---|
口口口口
口口②②

④④④④
口口③③
口口口口 |③---|
③③口口 |--④-|
28
口口口口 |--①-|
口口①口 |②---|
②②③③ |③---|
③③②② |----|
29
①③①③ |①-②-|
口口口口 |③-④-|
口口口口
④②④②

⑦口⑦口
⑤口⑤口
口⑥口⑥ |⑤-⑥-|
口⑧口⑧ |⑦-⑧-|
30
口①口① |①-②-|
③口②口 |--③-|
口口口口
③口③口

⑤⑤⑤⑤
口口口④
口口口口 |--④-|
口④口④ |--⑤-|
31
④④④④ |--①-|
②②③③ |②---|
口口①口 |③---|
③③②② |--④-|
32
口口④口 |--①-|
②②③③ |②---|
口口①口 |③---|
③③②② |--④-|
33
口④口口 |①---|
口口口③ |--②-|
①口②口 |③---|
口③①口 |--④-|
34
口口口口 |①---|
③①口③ |--②-|
口口口① |③---|
口口②口 |----|
35
①①①① |①---|
②②口口 |②---|
口口口口
口口②②

④④④④
口口③③
口口口口 |③---|
③③口口 |--④-|
36
口口口口 |--①-|
口口①口 |②---|
②②③③ |③---|
③③②② |----|
37
①③①③ |①-②-|
口口口口 |③-④-|
口口口口
④②④②

⑦口⑦口
⑤口⑤口
口⑥口⑥ |⑤-⑥-|
口⑧口⑧ |⑦-⑧-|
38
口①口① |①-②-|
③口②④ |--③-|
口④③口 |--④-|
③④③④ |----|
39
口①④② |①---|
①⑤口口 |②-③-|
③口④② |--④-|
口③口⑤ |--⑤-|
40
口②②口 |--①-|
②口①② |--②-|
口②②口 |----|
①口口口 |----|
41
口口②② |----|
口口③口 |----|
②②口口 |--①-|
①口口口 |②-③-|
42
口①口口 |①---|
①口口② |②---|
③口口① |③---|
口口①④ |④---|
43
②②③③ |①-②-|
口口①口 |--③-|
②②③③
口口口口

⑤⑤口口
口④④口
⑤⑤口口 |--④-|
口④④口 |--⑤-|
44
口口①① |①---|
口口口口 |②---|
口口①①
口口②口

③口口④
口口⑤⑤
口⑥口口 |③-④-|
⑤⑤口口 |⑤-⑥-|
45
口①⑤⑤ |①---|
①②⑥口 |②---|
⑤⑤③① |③-④-|
④口①④ |⑤-⑥-|
46
口①口口 |①---|
①口口② |②---|
③口口① |③---|
口口①④ |④---|
47
②②③③ |①-②-|
口口①口 |--③-|
②②③③
口口口口

⑤⑤口口
口④④口
⑤⑤口口 |--④-|
口④④口 |--⑤-|
48
口口①① |①---|
口口口口 |②---|
口口①①
口口②口

③口口④
口口⑤⑤
口⑥口口 |③-④-|
⑤⑤口口 |⑤-⑥-|
49
口①⑤⑤ |①---|
①②⑥口 |②---|
⑤⑤③① |③-④-|
④口①④ |⑤-⑥-|
50
口①口口 |①---|
①②口② |②---|
③口④① |③---|
口③①④ |④---|
51
②②③③ |①-②-|
口口①口 |--③-|
②②③③
口口口口

⑤⑤口口
口④④口
⑤⑤口口 |--④-|
口④④口 |--⑤-|
52
口口①① |①---|
口口口口 |②---|
口口①①
口口②②

③口口④
口③⑤⑤
口⑥口口 |③-④-|
⑤⑤口口 |⑤-⑥-|
53
口①⑤⑤ |①---|
①②⑥口 |②---|
⑤⑤③① |③-④-|
④口①④ |⑤-⑥-|
54
口①口口 |①---|
①②口② |②---|
③口③① |③---|
口④①④ |④---|
55
②②③③ |①-②-|
口①①口 |--③-|
②②③③
口口口口

⑤⑤口口
口④④口
⑤⑤口口 |--④-|
口④④口 |--⑤-|
56
口口①① |①---|
口口口口 |②---|
口口①①
口口②②

③口口④
口③⑤⑤
口⑥口口 |③-④-|
⑤⑤口口 |⑤-⑥-|
57
口①口口 |①---|
①②③③ |②---|
③③②① |③---|
口口①口 |----|
58
①口口① |①---|
③③③③ |--②-|
口口口口 |----|
口②②口 |③---|


不确定度: 0

最終更新:2012年12月27日 16:33