POINT ZERO
猫叉Master+

BASIC

Level: 3
BPM: 188
Notes: 191

1
口口口口 |----|
口口口口 |----|
口口口口 |----|
口口口口 |----|
2
口口口口 |----|
口口口口 |----|
口口口口 |----|
口口口口 |----|
3
①口口口 |----|
口口口口 |----|
口口口口 |----|
口口口口 |①---|
4
口①①口 |①---|
口②②口 |--②-|
口③③口 |----|
口口口口 |--③-|
5
②口口② |----|
口口口口 |--①-|
口口口口 |----|
口①①口 |--②-|
6
口口口口 |----|
①口口① |①---|
②口口② |--②-|
口口口口 |----|
7
口口口口 |①---|
口口口口 |----|
口口口口 |----|
①口口① |----|
8
口口口口 |①---|
口口口口 |----|
口口口口 |----|
①口口口 |----|
9
口口口口 |①---|
口口口口 |----|
口口口口 |----|
口①口口 |----|
10
口口口口 |①---|
口口口口 |----|
口口口口 |----|
口口①口 |----|
11
④口口口 |①---|
口口口③ |②---|
②口口口 |③---|
口口口① |④---|
12
口口口① |①---|
口口口口 |----|
口口口口 |----|
口口口口 |----|
13
口口①口 |①---|
口口口口 |----|
口口口口 |----|
口②②口 |--②-|
14
口口口口 |----|
口②②口 |--①-|
口①①口 |----|
口口口口 |--②-|
15
口①①口 |----|
口口口口 |--①-|
口口口口 |----|
口口口口 |----|
16
①口口口 |①---|
②③口口 |②---|
口④口口 |③---|
口口口口 |④---|
17
口口口口 |①---|
口口口口 |②---|
口口①口 |③---|
口口②③ |----|
18
口口口① |①---|
口口③② |②---|
口口④口 |③---|
口口口口 |④---|
19
口口口口 |①---|
口口口口 |②---|
口①口口 |③---|
③②口口 |----|
20
口口口口 |①---|
口口口口 |②---|
口④③口 |③---|
口口②① |④---|
21
③④④口 |①---|
②①口口 |②---|
口口口口 |③---|
口口口口 |--④-|
22
口口口口 |----|
口①①口 |--①-|
口②②口 |----|
口口口口 |--②-|
23
口口口口 |----|
口口口口 |--①-|
口口口口 |----|
口①①口 |----|
24
①口口口 |①---|
②③口口 |②---|
口④口口 |③---|
口口口口 |④---|
25
口口口口 |①---|
口口口口 |②---|
口口①口 |③---|
口口②③ |----|
26
口口口① |①---|
口口③② |②---|
口口④口 |③---|
口口口口 |④---|
27
口口口口 |①---|
口口口口 |②---|
口①口口 |③---|
③②口口 |----|
28
口口口口 |①---|
口口口口 |②---|
口④③口 |③---|
口口②① |④---|
29
③④④口 |①---|
②①口口 |②---|
口口口口 |③---|
口口口口 |--④-|
30
口口口口 |----|
口①①口 |--①-|
口②②口 |----|
口口口口 |--②-|
31
口口口口 |----|
口口口口 |--①-|
口口口口 |----|
口①①口 |----|
32
③口口口 |①---|
②口口口 |--②-|
口口口口 |----|
①口口口 |③---|
33
口口口口 |----|
口口口口 |----|
口口口口 |----|
口口口口 |----|
34
口口口③ |①---|
口口口② |--②-|
口口口口 |----|
口口口① |③---|
35
口口口口 |----|
口口口口 |----|
口①②口 |①---|
口口口口 |②---|
36
③口口口 |①---|
②口口口 |--②-|
口口口口 |----|
①口口口 |③---|
37
口口口口 |----|
口口口口 |----|
口口口口 |----|
口口口口 |----|
38
口口口③ |①---|
口口口② |--②-|
口口口口 |----|
口口口① |③---|
39
①口口口 |--①-|
口②②口 |----|
口③③口 |②---|
口口口口 |③---|
40
③口口口 |①---|
②口口口 |--②-|
口口口口 |----|
①口口口 |③---|
41
口口口口 |----|
口口口口 |----|
口口口口 |----|
口口口口 |----|
42
口口口③ |①---|
口口口② |--②-|
口口口口 |----|
口口口① |③---|
43
口口口口 |----|
口口口口 |----|
口①②口 |①---|
口口口口 |②---|
44
③口口口 |①---|
②口口口 |--②-|
口口口口 |----|
①口口口 |③---|
45
口口口口 |----|
口口口口 |----|
口口口口 |----|
口口口口 |----|
46
口口口③ |①---|
口口口② |--②-|
口口口口 |----|
口口口① |③---|
47
①口口口 |--①-|
口②②口 |----|
口③③口 |②---|
口口口口 |③---|
48
口口口口 |①---|
口口口口 |--②-|
口口口口 |----|
①②③口 |③---|
49
口口口口 |--①-|
口口口③ |----|
口口口② |②---|
口口口① |--③-|
50
口口②① |----|
口口口口 |①---|
口口口口 |--②-|
口口口口 |----|
51
②①口口 |①---|
③口口口 |--②-|
口口口口 |----|
口口口口 |③---|
52
口口口口 |--①-|
口口口口 |----|
①口口口 |②---|
②③口口 |--③-|
53
口口口口 |----|
口口口口 |①---|
口口②口 |--②-|
口口①口 |----|
54
口口口口 |①---|
口②①口 |--②-|
口③口口 |----|
口口口口 |③---|
55
口口口口 |--①-|
口口②口 |----|
口口①口 |②---|
口口口口 |----|
56
口口口口 |----|
口口口口 |----|
口口口口 |----|
口口口口 |----|
57
口口口口 |----|
口口口口 |----|
口口口口 |----|
口口口口 |----|
58
口口口口 |----|
口口口口 |----|
口口口口 |----|
口口口口 |----|
59
口口①口 |①---|
口口口口 |----|
②口口口 |----|
口口口口 |--②-|
60
口口口口 |----|
口口口口 |----|
口口口口 |----|
口口口口 |----|
61
口口口② |----|
口口口口 |①---|
口口口口 |----|
口①口口 |--②-|
62
②口口口 |----|
口口口口 |--①-|
口口口① |----|
口口口口 |--②-|
63
口口口口 |----|
口口①口 |----|
口口口口 |----|
口口口口 |--①-|
64
口口口口 |----|
口口口口 |----|
口口口口 |----|
口口口口 |----|
65
口②口口 |----|
口口口口 |①---|
①口口口 |----|
口口口口 |--②-|
66
口口口口 |----|
口口口口 |--①-|
口口口口 |----|
口口①口 |----|
67
①口口口 |①---|
口口口口 |----|
口口口② |----|
口口口口 |--②-|
68
口口口口 |----|
口口口口 |----|
口口口口 |----|
口口口口 |----|
69
口口口口 |----|
②口口口 |①---|
口口①口 |----|
口口口口 |--②-|
70
口①口口 |----|
口口口② |--①-|
口口口口 |----|
口口口口 |--②-|
71
口口口口 |----|
口口口口 |----|
口①口口 |----|
口口口口 |--①-|
72
口口口口 |----|
口口口口 |----|
口口口口 |----|
口口口口 |----|
73
②口口口 |----|
口口口口 |①---|
口口口口 |----|
①口口口 |--②-|
74
口口口口 |----|
口口口口 |--①-|
口口口① |----|
口口口口 |----|
75
口口口口 |①---|
①口口口 |----|
口口②口 |----|
口口口口 |--②-|
76
口口口口 |----|
口口口口 |----|
口口口口 |----|
口口口口 |----|
77
口口口① |----|
口口②口 |①---|
口口口口 |----|
口口口口 |--②-|
78
口口口口 |----|
口口口口 |--①-|
口口口口 |----|
②口①口 |--②-|
79
口口口口 |----|
口①口口 |----|
口口口口 |----|
口口口口 |--①-|
80
口口口口 |----|
口口口口 |----|
口口口口 |----|
口口口口 |----|
81
口口口② |----|
口口口口 |①---|
口口口① |----|
口口口口 |--②-|
82
②口口② |----|
口口口口 |--①-|
口口口口 |----|
口①口口 |--②-|
83
口口口口 |----|
①口口① |①---|
②口口② |--②-|
口口口口 |----|
84
口口口口 |①---|
口口口口 |--②-|
口口口口 |----|
①②②① |----|


不确定度: 0

最終更新:2012年12月18日 01:55