キラキラ☆ステーション
Tatsh feat. Purico

BASIC

Level: 7
BPM: 176
Notes: 413

1
口口口口 |----|
口口口口 |----|
口口口口 |----|
口口口口 |----|
2
口口④④ |①---|
③口口口 |②---|
口口②② |③---|
①口口口 |④---|
3
④④口口 |①---|
口口口③ |②---|
②②口口 |③---|
口口口① |④---|
4
口口④④ |①---|
③口口口 |②---|
口口②② |③---|
①口口口 |④---|
5
④④口口 |①---|
口口口③ |②---|
②②口口 |③---|
口口口① |④---|
6
口口④④ |①---|
③口口口 |②---|
口口②② |③---|
①口口口 |④---|
7
口口口口 |①---|
口口口口 |②---|
②②口口
口口口①
8
口口口口 |①---|
①③②④ |②---|
口口②④ |③---|
口口口口 |④---|
9
③口⑤⑤ |①---|
②口④④ |②---|
①口口口 |③-④-|
口口口口 |⑤---|
10
口口口口 |①---|
④②③口 |②---|
④②口① |③---|
口口口口 |④---|
11
口口④口 |①---|
口口③② |②---|
口口口① |③---|
口口口口 |④---|
12
②④口口 |①---|
②④口口 |②---|
口口③口 |③---|
口口口① |④---|
13
口口②④ |①---|
口口②④ |②---|
③口口口 |③---|
口①口口 |④---|
14
口②口④ |①---|
①口③口 |②---|
口口口口 |③---|
口口口口 |④---|
15
④口口④ |①---|
③口口③ |②---|
②口口② |③---|
①口口① |④---|
16
口④④口 |①---|
口③③口 |②---|
口②②口 |③---|
口①①口 |④---|
17
④口口口 |①---|
②④口口 |②---|
口②③口 |③---|
口口口① |④---|
18
口口④口 |①---|
口口②④ |②---|
口③口② |③---|
①口口口 |④---|
19
口口口口 |①---|
②口②口 |②---|
口口口口 |----|
①口口① |----|
20
口口口① |①---|
口②③口 |②---|
②④口口 |③---|
④口口口 |④---|
21
①口口口 |①---|
口③口② |②---|
口口②④ |③---|
口口④口 |④---|
22
④口口口 |①---|
②④口口 |②---|
口②③口 |③---|
口口口① |④---|
23
口口④口 |①---|
口口②④ |②---|
口③口② |③---|
①口口口 |④---|
24
口③口③ |----|
①口①口 |①---|
②口口② |②---|
口口口口 |③---|
25
口口口口 |----|
口①①口 |①---|
口①①口 |----|
口口口口 |----|
26
④口口口 |①---|
③口口口 |②---|
②口口口 |③---|
①口口口 |④---|
27
口口口口 |----|
口①①口 |①---|
口①①口 |----|
口口口口 |----|
28
口口口① |①---|
口口口② |②---|
口口口③ |③---|
口口口④ |④---|
29
口口口④ |①---|
口口②④ |②---|
口口②口 |③---|
①③口口 |④---|
30
④口口口 |①---|
④②口口 |②---|
口②口口 |③---|
口口③① |④---|
31
口口口口 |①---|
④口②口 |②---|
口③口① |③---|
口口口口 |④---|
32
①①口口 |①---|
口口③③ |②---|
口口口② |③---|
④口口口 |④---|
33
口口②② |①---|
口口口口 |②---|
①①①口 |----|
口口口口 |----|
34
口口口口 |①---|
口④口口 |②---|
②③④口 |③---|
①②口口 |④---|
35
口③②③ |①---|
④④①② |②---|
口口口口 |③---|
口口口口 |④---|
36
口口口口 |①---|
口口④口 |②---|
口④③② |③---|
口口②① |④---|
37
③②③口 |①---|
②①④④ |②---|
口口口口 |③---|
口口口口 |④---|
38
口口口口 |①---|
口①口口 |②---|
口②③④ |③---|
口①口口 |④---|
39
口口口口 |①---|
④口①③ |②---|
②口口口 |③---|
口口①口 |④---|
40
口口口口 |①---|
口口口口 |②---|
口口③④ |③---|
①②口口 |④---|
41
口①②口 |①---|
口③④口 |②---|
①②口口 |③---|
口口③④ |④---|
42
口口口口 |①---|
口④口口 |②---|
②③④口 |③---|
①②口口 |④---|
43
口③②③ |①---|
④④①② |②---|
口口口口 |③---|
口口口口 |④---|
44
口口口口 |①---|
口口④口 |②---|
口④③② |③---|
口口②① |④---|
45
③②③口 |①---|
②①④④ |②---|
口口口口 |③---|
口口口口 |④---|
46
口口口口 |①---|
口口口口 |②---|
②口口② |----|
①口口① |----|
47
①口口口 |①---|
口②口口 |②---|
口口③口 |③---|
口口口④ |④---|
48
①口口① |①---|
②口口② |②---|
口口口口 |----|
口口口口 |----|
49
口口口① |①---|
口口②口 |②---|
口③口口 |③---|
④口口口 |④---|
50
①②③④ |①---|
口②口④ |②---|
①口③口 |③---|
口口口口 |④---|
51
口口口口 |①---|
口口口口 |----|
①口口① |----|
口口口口 |----|
52
④③②① |①---|
④口②口 |②---|
口③口① |③---|
口口口口 |④---|
53
口口口口 |①---|
口口口口 |----|
①口口① |----|
口口口口 |----|
54
口口③口 |----|
口②口口 |①---|
口口①口 |②---|
口口口口 |③---|
55
口口口口 |①---|
①③②④ |②---|
口口②④ |③---|
口口口口 |④---|
56
③口⑤⑤ |①---|
②口④④ |②---|
①口口口 |③-④-|
口口口口 |⑤---|
57
口口口口 |①---|
④②③口 |②---|
④②口① |③---|
口口口口 |④---|
58
口口④口 |①---|
口口③② |②---|
口口口① |③---|
口口口口 |④---|
59
②④口口 |①---|
②④口口 |②---|
口口③口 |③---|
口口口① |④---|
60
口口②④ |①---|
口口②④ |②---|
③口口口 |③---|
口①口口 |④---|
61
口②口④ |①---|
①口③口 |②---|
口口口口 |③---|
口口口口 |④---|
62
④口口④ |①---|
③口口③ |②---|
②口口② |③---|
①口口① |④---|
63
口口①口 |①---|
④②③口 |②---|
④②口口 |③---|
口口口口 |④---|
64
④④口③ |①---|
口口口② |②---|
口口口① |③---|
口口口口 |④---|
65
口口口口 |①---|
口③②④ |②---|
①口②④ |③---|
口口口口 |④---|
66
口口口口 |①---|
②③口口 |②---|
①口⑤⑤ |③-④-|
口口④④ |⑤---|
67
口口④② |①---|
口口④② |②---|
口③口口 |③---|
①口口口 |④---|
68
④②口口 |①---|
④②口口 |②---|
口口口③ |③---|
口口①口 |④---|
69
④口②口 |①---|
口③口① |②---|
口口口口 |③---|
口口口口 |④---|
70
④口口④ |①---|
③口口③ |②---|
②口口② |③---|
①口口① |④---|
71
口①①口 |①---|
口②②口 |②---|
口③③口 |③---|
口④④口 |④---|
72
④口口④ |①---|
③口口③ |②---|
②口口② |③---|
①口口① |④---|
73
口①①口 |①---|
口②②口 |②---|
口③③口 |③---|
④口口④ |④---|
74
口①①口 |----|
口①①口 |①---|
口口口口 |----|
口口口口 |----|


不确定度: 0

最終更新:2012年12月18日 01:48