キラキラ☆ステーション
Tatsh feat. Purico

ADVANCED

Level: 8
BPM: 176
Notes: 585

1
口口口口 |----|
口口口口 |----|
口口口口 |----|
口口口口 |----|
2
口口口口 |①-②-|
口口口口 |③-④-|
⑦⑧④③ |⑤-⑥-|
⑤⑥②① |⑦-⑧-|
3
⑥⑧④③ |①-②-|
⑤⑦②① |③-④-|
口口口口 |⑤-⑥-|
口口口口 |⑦-⑧-|
4
口口口口 |①-②-|
口口口口 |③-④-|
⑦⑧④③ |⑤-⑥-|
⑤⑥②① |⑦-⑧-|
5
⑥⑧④③ |①-②-|
⑤⑦②① |③-④-|
口口口口 |⑤-⑥-|
口口口口 |⑦-⑧-|
6
口口口口 |①-②-|
⑥口①③ |③-④-|
口⑦④② |⑤-⑥-|
口⑤⑧口 |⑦-⑧-|
7
①口口口 |①-②-|
口②口口 |③-④-|
口口③口
口口口④
8
口⑦口⑥ |①-②-|
③口口⑤ |③-④-|
②口口④ |⑤-⑥-|
①口⑧口 |⑦-⑧-|
9
口⑥⑥④ |①---|
⑥⑤⑤⑥ |②-③-|
口②③口 |④-⑤-|
①口口口 |⑥---|
10
口口口口 |①-②-|
⑦⑧口口 |③-④-|
口④⑤⑥ |⑤-⑥-|
①②③口 |⑦-⑧-|
11
④口口① |①-②-|
口口②口 |③-④-|
口③⑦⑤ |--⑤-|
口⑥口口 |⑥-⑦-|
12
口口④④ |①---|
口口②② |②---|
③口口口 |③---|
①口口口 |④---|
13
④④口口 |①---|
②②口口 |②---|
口口⑥③ |③---|
口口⑤① |④-⑤⑥|
14
④口④④ |①---|
②口①口 |②-③-|
③③⑤③ |--④-|
口⑤口⑤ |--⑤-|
15
口①③口 |--①-|
①③①③ |--②-|
④②口④ |--③-|
②口②口 |--④-|
16
①②口③ |--①-|
口口口口 |②-③-|
口口口口 |--④-|
⑥口⑤④ |⑤-⑥-|
17
口口口口 |①-②-|
①①③③ |③-④-|
④④②②
口口口口

口⑥口口
⑥口口口
口口口口 |--⑤-|
口口口⑤ |--⑥-|
18
②④③① |--①-|
口②①③ |--②-|
口口口口 |--③-|
口口口口 |--④-|
19
口口口口 |①-②-|
口口⑤口 |③-④-|
①②③④ |----|
①②③④ |⑤---|
20
口口口③ |①-②-|
口②口口 |--③-|
①口口口
口口口口

口口口口
口口④口
⑤口口口 |--④-|
口口口口 |--⑤-|
21
①口口口 |①---|
口③⑤② |②-③-|
口⑤口口 |--④-|
口口口④ |--⑤-|
22
口口口① |--①-|
③④口② |--②-|
②口④③ |--③-|
①口口口 |--④-|
23
③③口口 |①---|
口口①口 |--②-|
口①口口 |③---|
口口②② |----|
24
②③③④ |--①-|
②口口③ |--②-|
口口口③ |③---|
①口②② |④---|
25
口口口口 |----|
①口①口 |①---|
口①②口 |--②-|
口①口③ |③---|
26
②口②① |①---|
②③⑤口 |②-③-|
口口口④ |--④-|
口口口口 |⑤---|
27
口口口① |----|
④①口① |①---|
口②①④ |--②-|
③口口口 |③-④-|
28
口①①④ |①---|
⑤③④② |②-③-|
口⑤③口 |--④-|
口口口口 |--⑤-|
29
①口口口 |----|
口②口口 |①-②-|
④⑥③口 |③-④-|
口口⑤口 |⑤-⑥-|
30
口口口② |①-②-|
口口①口 |③-④-|
口口④④
口③口口

⑤口⑤口
口口⑥口
口⑥口口 |--⑤-|
口口口口 |--⑥-|
31
口①口口 |①---|
①口口口 |②-③-|
口口口②
口口③口

⑤口⑤口
⑥④⑥④
口口口口 |--④-|
口口口口 |⑤-⑥-|
32
口口口口 |--①-|
口口口口 |②-③-|
口⑥③② |④-⑤-|
⑦⑤④① |⑥-⑦-|
33
口④口① |①-②-|
④②①③ |③-④-|
②口③口 |----|
口口口口 |----|
34
口口口口 |①---|
②①①④ |--②-|
①口③① |--③-|
⑤口口⑤ |④-⑤-|
35
③口口③ |--①-|
口①①口 |--②-|
②④口② |--③-|
口口口口 |--④-|
36
口①①口 |①---|
①口口① |--②-|
②口口口
口口口口

口口口口
⑤口③⑤
口口口④ |--③-|
口口口口 |④-⑤-|
37
口①①口 |--①-|
口⑤⑤口 |②-③-|
②⑤②④ |--④-|
口③④④ |⑤---|
38
⑦口口② |①-②-|
⑤口口④ |③-④-|
③口口⑥ |⑤-⑥-|
①口口⑧ |⑦-⑧-|
39
口①①⑤ |①---|
口④口口 |②-③-|
③口口口 |④---|
②①①口 |⑤---|
40
①口②④ |①---|
口口②口 |②-③-|
口③⑤口 |--④-|
口①口口 |--⑤-|
41
①②③口 |①---|
口口口④ |②---|
①②口④ |③---|
①口③口 |④---|
42
①口口① |①---|
②①①④ |--②-|
口口③口 |--③-|
⑤口口⑤ |④-⑤-|
43
③口口③ |--①-|
口①①口 |--②-|
②口⑤② |--③-|
口④口口 |④-⑤-|
44
口①①口 |①---|
①口口① |--②-|
②口口口
口口口口

口口口口
⑤口③⑤
口口口④ |--③-|
口口口口 |④-⑤-|
45
口①①④ |--①-|
口④口口 |②-③-|
②口②口 |--④-|
⑤③口口 |⑤---|
46
口口口口 |①-②-|
口口③③ |③---|
口口②②
口口①①

口口⑥口
口⑤口口
④口口口 |--④-|
口口⑥口 |⑤-⑥-|
47
口口口① |--①-|
口口口口 |----|
口口口口 |----|
口口口① |----|
48
口口⑤口 |①-②-|
③③口口 |③---|
②②口④ |--④-|
①①口口 |--⑤-|
49
②①口口 |--①-|
口口口口 |--②-|
口③口口 |----|
②①口口 |--③-|
50
②②口口 |①---|
⑤口①① |②---|
⑤④口口 |③---|
④④③口 |④-⑤-|
51
口口口口 |--①-|
口口⑤④ |--②-|
口口②口 |--③-|
口③口① |④-⑤-|
52
③④⑤⑤ |①---|
口④⑤⑥ |②---|
①①口⑥ |③-④-|
口口②② |⑤-⑥-|
53
⑦口口口 |--①-|
⑦⑥口口 |②-③-|
②口⑤口 |④-⑤-|
①③口④ |⑥-⑦-|
54
口口口口 |--①-|
口⑤口⑤ |②-③-|
口③口① |④---|
④口②④ |⑤---|
55
口⑦⑥口 |①-②-|
③口⑤口 |③-④-|
②口口④ |⑤-⑥-|
口①⑧口 |⑦-⑧-|
56
口⑥⑥④ |①---|
⑥⑤⑤⑥ |②-③-|
口②③口 |④-⑤-|
①口口口 |⑥---|
57
口口口口 |①-②-|
⑦⑧口口 |③-④-|
口④⑤⑥ |⑤-⑥-|
①②③口 |⑦-⑧-|
58
④口口① |①-②-|
口口②口 |③-④-|
口③⑦⑤ |--⑤-|
口⑥口口 |⑥-⑦-|
59
口口④④ |①---|
口口②② |②---|
③口口口 |③---|
①口口口 |④---|
60
④④口口 |①---|
②②口口 |②---|
口口⑥③ |③---|
口口⑤① |④-⑤⑥|
61
④口④④ |①---|
②口①口 |②-③-|
③③⑤③ |--④-|
口⑤口⑤ |--⑤-|
62
口①③口 |--①-|
①③①③ |--②-|
④②口④ |--③-|
②口②口 |--④-|
63
③⑦口⑥ |①-②-|
②口口⑤ |③-④-|
口口④口 |⑤-⑥-|
口①⑧口 |⑦-⑧-|
64
⑦口口④ |①---|
口⑥⑤口 |②-③-|
口②③口 |④-⑤-|
①口口口 |⑥-⑦-|
65
口口口口 |①-②-|
⑦⑧口① |③-④-|
口④⑤⑥ |⑤-⑥-|
口②③口 |⑦-⑧-|
66
④③②① |①-②-|
口⑥⑥口 |③-④-|
⑥⑤⑤⑥ |--⑤-|
口口口口 |⑥---|
67
口①口口 |----|
口口③① |①---|
③②口口 |②---|
口口口口 |③---|
68
④口②口 |①---|
②口口④ |②---|
口口⑥③ |③---|
口口⑤① |④-⑤⑥|
69
④口④④ |①---|
②口①口 |②-③-|
③③⑤③ |--④-|
口⑤口⑤ |--⑤-|
70
口①③口 |--①-|
①③①③ |--②-|
④②口④ |--③-|
②口②口 |--④-|
71
①②口③ |--①-|
口口口口 |②-③-|
口口口口 |--④-|
⑥口⑤④ |⑤-⑥-|
72
口口口口 |--①-|
①②口③ |②-③-|
⑥口⑤④ |--④-|
口口口口 |⑤-⑥-|
73
④①②③ |--①-|
⑤口口⑥ |②-③-|
⑥口口⑤ |--④-|
③②①④ |⑤-⑥-|
74
口口口口 |----|
口①①口 |①---|
口①①口 |----|
口口口口 |----|


不确定度: 0

最終更新:2012年12月18日 01:47