BLUE STRAGGLER
L.E.D.

BASIC

Level: 5
BPM: 160
Notes: 321

1
口口口口 |----|
口口口口 |----|
口口口口 |----|
口口口口 |----|
2
口口口口 |----|
口口口口 |----|
口口口口 |----|
口口口口 |----|
3
②口口口 |①---|
口③口口 |----|
口①①口 |--②-|
口口口口 |--③-|
4
口口①口 |--①-|
口口口② |--②-|
口口③口 |--③-|
口④口口 |--④-|
5
口口口口 |--①-|
口①①口 |----|
口口③口 |--②-|
口口口② |--③-|
6
口口④口 |--①-|
口③口口 |--②-|
②口口口 |--③-|
口①口口 |--④-|
7
口口口② |--①-|
口口③口 |----|
口①①口 |--②-|
口口口口 |--③-|
8
口①口口 |--①-|
②口口口 |--②-|
口③口口 |--③-|
口口④口 |--④-|
9
口口口口 |--①-|
口①①口 |----|
口③口口 |--②-|
②口口口 |--③-|
10
口口口口 |--①-|
口③③口 |--②-|
口口口② |--③-|
口口①口 |----|
11
③①①③ |①---|
口口口口 |--②-|
口口口口 |----|
口②②口 |③---|
12
口口口口 |①---|
口口口口 |----|
①口口② |②---|
口口口口 |----|
13
③口口③ |①---|
口①①口 |--②-|
口口口口 |----|
口②②口 |③---|
14
口口口口 |①---|
口口口口 |----|
①口口② |②---|
口口口口 |----|
15
口③③口 |①---|
①①②② |--②-|
口口口口 |----|
口口口口 |③---|
16
③口口③ |①---|
口口口口 |--②-|
口①②口 |----|
口口口口 |③---|
17
口口口口 |①---|
口②②口 |----|
③口口④ |②---|
口①①口 |③-④-|
18
口②②口 |-①--|
③口口③ |---②|
③口口③ |----|
口①①口 |③---|
19
②口口② |----|
口①①口 |①---|
口口口口 |----|
口口口口 |②---|
20
口口口口 |①---|
口口口口 |----|
①口口② |②---|
口口口口 |----|
21
③口口③ |①---|
口①①口 |--②-|
口口口口 |----|
口②②口 |③---|
22
口口口口 |①---|
口口口口 |----|
①口口② |②---|
口口口口 |----|
23
口②②口 |①---|
③口口③ |--②-|
口口口口 |----|
口口①口 |③---|
24
③②②③ |①---|
口口口口 |--②-|
口口口口 |----|
口①口口 |③---|
25
口口口口 |①---|
口口口口 |----|
①口口② |②---|
口口口口 |----|
26
①①口口 |-①--|
口口②② |---②|
口口口口 |----|
口③③口 |③---|
27
③口口③ |①---|
口②②口 |--②-|
①口口① |----|
口口口口 |③---|
28
口口口口 |①---|
口口口口 |----|
①口口② |②---|
口口口口 |----|
29
③口口③ |①---|
口口口口 |--②-|
口①①口 |----|
口②②口 |③---|
30
口口口口 |①---|
口口口口 |----|
①口口② |②---|
口口口口 |----|
31
③口口③ |①---|
口①①口 |--②-|
口口口口 |----|
口②②口 |③---|
32
口口口口 |①---|
口口口口 |----|
①口口② |②---|
口口口口 |----|
33
③①①③ |①---|
口口口口 |--②-|
口口口口 |----|
口②②口 |③---|
34
口⑥⑥口 |-①--|
①②④③ |②--③|
①②④③ |--④-|
口⑤⑤口 |-⑤-⑥|
35
口口口口 |----|
口口口口 |----|
口口口口 |----|
口口口口 |----|
36
口口口口 |----|
口①①口 |----|
口口口口 |----|
口口口口 |---①|
37
口口口口 |----|
口口口口 |----|
口口口口 |----|
口口口口 |----|
38
口口口口 |----|
口口口口 |----|
口①①口 |----|
口口口口 |---①|
39
口口口口 |----|
口口口口 |----|
口口口口 |----|
口口口口 |----|
40
口口口口 |----|
口①①口 |----|
口口口口 |----|
口口口口 |---①|
41
口口口口 |----|
口口口口 |----|
口口口口 |----|
口口口口 |----|
42
口口口口 |----|
口口口口 |----|
口口口口 |----|
口口口口 |----|
43
口⑤⑤口 |--①-|
①②③④ |-②--|
口口口口 |③--④|
口口口口 |--⑤-|
44
口口口口 |--①-|
口口口口 |-②--|
口⑤⑤口 |③--④|
④③②① |--⑤-|
45
①口③口 |--①-|
口②口④ |-②--|
口口⑤口 |③--④|
口口口口 |--⑤-|
46
口口口口 |--①-|
口口⑤口 |-②--|
口②口④ |③--④|
①口③口 |--⑤-|
47
①⑤⑤口 |-①--|
口②口口 |②--③|
③口口口 |--④-|
口④④口 |--⑤-|
48
口⑤⑤① |--①-|
口口②口 |-②--|
口口口③ |③--④|
口口④口 |--⑤-|
49
口④口口 |--①-|
③⑤⑤口 |-②--|
口②口口 |③--④|
①口口口 |--⑤-|
50
口口④口 |--①-|
口⑤⑤③ |-②--|
口口②口 |③--④|
口口口① |--⑤-|
51
口⑤⑤口 |--①-|
口口口口 |-②--|
口②口④ |③--④|
①口③口 |--⑤-|
52
口⑤⑤口 |--①-|
口③口① |-②--|
④口②口 |③--④|
口口口口 |--⑤-|
53
口⑤⑤口 |--①-|
①口③口 |-②--|
口②口④ |③--④|
口口口口 |--⑤-|
54
口⑤⑤口 |--①-|
口口口口 |-②--|
④口②口 |③--④|
口③口① |--⑤-|
55
口口口口 |----|
口口口口 |----|
口口口口 |----|
口口口口 |----|
56
口口口口 |----|
口口口口 |----|
口口口口 |----|
口口口口 |----|
57
口⑤⑤口 |--①-|
①②③④ |-②--|
口口口口 |③--④|
口口口口 |--⑤-|
58
口口口口 |--①-|
口口口口 |-②--|
口⑤⑤口 |③--④|
④③②① |--⑤-|
59
①口③口 |--①-|
口②口④ |-②--|
口口⑤口 |③--④|
口口口口 |--⑤-|
60
口⑥⑥口 |--①-|
口⑤④③ |-②--|
口②口口 |③-④-|
①口口口 |⑤-⑥-|
61
口③③口 |--①-|
口口口口 |----|
①口口口 |②---|
口②②口 |③---|
62
口⑤⑤口 |--①-|
④口②口 |-②--|
口③口① |③--④|
口口口口 |--⑤-|
63
口⑤⑤口 |--①-|
口②口④ |-②--|
①口③口 |③--④|
口口口口 |--⑤-|
64
口⑤⑤口 |--①-|
口口口口 |-②--|
④口②口 |③--④|
口③口① |--⑤-|
65
口⑤⑤口 |--①-|
①②③④ |-②--|
口口口口 |③--④|
口口口口 |--⑤-|
66
口口口口 |--①-|
口口口口 |-②--|
口⑤⑤口 |③--④|
④③②① |--⑤-|
67
①口③口 |--①-|
口②口④ |-②--|
口口⑤口 |③--④|
口口口口 |--⑤-|
68
口⑥⑥口 |--①-|
口⑤④③ |-②--|
口②口口 |③-④-|
①口口口 |⑤-⑥-|
69
口③③口 |--①-|
口口口口 |----|
①口口口 |②---|
口②②口 |③---|
70
口⑤⑤口 |--①-|
④口②口 |-②--|
口③口① |③--④|
口口口口 |--⑤-|
71
口⑤⑤口 |--①-|
口口口口 |-②--|
①③④② |③--④|
口口口口 |--⑤-|
72
口⑤⑤口 |--①-|
④②②④ |-②--|
口③③口 |③--④|
口①①口 |--⑤-|


不确定度: 0

最終更新:2012年12月18日 01:41