BLUE STRAGGLER
L.E.D.

ADVANCED

Level: 9
BPM: 160
Notes: 605

1
口口口口 |----|
口口口口 |----|
口口口口 |----|
口口口口 |----|
2
口口口口 |①---|
口①①口 |----|
口口口口 |----|
口口口口 |----|
3
口口⑤⑥ |①-②-|
①②③④ |③-④-|
口口⑥⑤ |--⑤-|
口口口口 |--⑥-|
4
③④口口 |--①-|
①②口口 |--②-|
④③口口 |--③-|
②①口口 |--④-|
5
口口④⑤ |--①-|
口①②③ |②-③-|
口口⑤④ |--④-|
口口口口 |--⑤-|
6
③④口口 |--①-|
①②口口 |--②-|
④③口口 |--③-|
②①口口 |--④-|
7
④⑤口口 |--①-|
③②①口 |②-③-|
⑤④口口 |--④-|
口口口口 |--⑤-|
8
口口③④ |--①-|
口口①② |--②-|
口口④③ |--③-|
口口②① |--④-|
9
口口④⑤ |--①-|
①②③口 |②-③-|
口口⑤④ |--④-|
口口口口 |--⑤-|
10
口口口口 |--①-|
①②⑤口 |--②-|
③④口口 |--③-|
②①口口 |④-⑤-|
11
口④②⑤ |①--②|
③口⑥① |--③-|
④⑦口② |-④--|
⑧③①口 |⑤⑥⑦⑧|
12
口④②口 |-①--|
③⑤口① |②--③|
④口⑥② |--④-|
口③①口 |-⑤-⑥|
13
⑤④②口 |①--②|
③⑥口① |--③-|
④口⑦② |-④--|
口③①⑧ |⑤⑥⑦⑧|
14
口④②口 |-①--|
③口⑤① |②--③|
④⑥口② |--④-|
口③①口 |-⑤-⑥|
15
口口②① |①--②|
④③⑥口 |--③-|
口⑤①② |-④--|
③④口口 |⑤-⑥-|
16
口③口⑤ |-①-②|
口②⑥④ |--③-|
③⑦①口 |-④--|
⑧口④口 |⑤⑥⑦⑧|
17
口②①口 |-①--|
口④⑥口 |②--③|
②⑤③① |-④--|
口口口口 |⑤-⑥-|
18
⑦①②③ |-①--|
②③⑤① |②--③|
①④③② |-④⑤-|
③②①⑥ |⑥-⑦-|
19
口①口⑤ |----|
口口④① |①---|
①③口口 |----|
②口①口 |②③④⑤|
20
口口①口 |-①--|
③口口② |②--③|
口口口①
口③②口

④口⑥口
口口口口
口④口口 |--④-|
口口口⑤ |-⑤-⑥|
21
口③口① |①--②|
口口口② |--③-|
③口口口
口口②口

口口口⑤
④口⑥口
口⑦口口 |-④--|
⑧④口口 |⑤⑥⑦⑧|
22
口③②口 |-①--|
口口口① |②--③|
③口口②
口口①口

口口口⑥
④口口口
口口口口 |--④-|
口④⑤口 |-⑤-⑥|
23
③②①口 |①--②|
口口⑥⑤ |--③-|
②③④④ |-④--|
口口⑤⑥ |⑤-⑥-|
24
口②③口 |-①-②|
①①口口 |--③-|
②口口③
口口口口

⑤口口口
口⑥口④
口口⑦口 |-④--|
口口④⑧ |⑤⑥⑦⑧|
25
口①口口 |-①--|
②口③口 |②--③|
①口口③
口②口口

⑤口口口
口⑥口④
⑥⑤口口 |-④--|
口口④口 |⑤-⑥-|
26
⑥④口① |-①--|
②⑤③口 |②--③|
④⑥①口 |--④-|
⑤②口③ |⑤-⑥-|
27
口④②⑤ |①--②|
③口⑥① |--③-|
④⑦口② |-④--|
⑧③①口 |⑤⑥⑦⑧|
28
口口①口 |-①--|
③口口② |②--③|
口口口①
口③②口

④口⑥口
口口口口
口④口口 |--④-|
口口口⑤ |-⑤-⑥|
29
口③口① |①--②|
口口口② |--③-|
③口口口
口口②口

口口口⑤
④口⑥口
口⑦口口 |-④--|
⑧④口口 |⑤⑥⑦⑧|
30
口③②口 |-①--|
口口口① |②--③|
③口口②
口口①口

口口口⑥
④口口口
口口口口 |--④-|
口④⑤口 |-⑤-⑥|
31
口③①口 |①--②|
口②口口 |--③-|
③口口口
②口口口

口口口⑤
口口⑥口
口⑦④④ |-④--|
⑧口口口 |⑤⑥⑦⑧|
32
⑥②③口 |-①--|
①①口④ |②--③|
②口口③ |--④-|
口⑤④口 |-⑤-⑥|
33
口①②⑤ |①--②|
④口⑥③ |--③-|
口⑦口② |-④--|
⑧④③口 |⑤⑥⑦⑧|
34
②①①口 |-①--|
③②口③ |②--③|
①口②①
口③③②

口⑤⑥口
口口④口
⑤④口⑥ |--④-|
口口口口 |-⑤-⑥|
35
②口口口 |----|
口①口口 |----|
口口口口 |①---|
口口口口 |②---|
36
口口口② |①---|
口口①口 |②---|
口口③口 |③---|
口口口④ |④---|
37
④口口口 |①---|
口③口口 |②---|
口①口口 |③---|
②口口口 |④---|
38
口口口② |①---|
口口①口 |②---|
口口③口 |③---|
口口口④ |④---|
39
④口口口 |①---|
口③口口 |②---|
口①口口 |③---|
②口口口 |④---|
40
口口口② |①---|
口口①口 |②---|
口口③口 |③---|
口口口④ |④---|
41
④口口口 |①---|
口③口口 |②---|
口①口口 |③---|
②口口口 |④---|
42
口口口② |①---|
口口①口 |②---|
口口③口 |③---|
口口口④ |④---|
43
口口口② |①-②-|
①口口① |-③--|
①口③①
口口口口

口口⑦口
口口④口
口口口⑥ |④--⑤|
口口⑥⑤ |--⑥⑦|
44
①⑥口口 |--①-|
口③口口 |-②--|
⑤②口口 |③--④|
④⑤口口 |--⑤⑥|
45
口口口口 |--①-|
口口②① |-②--|
口口口口
口口①②

口口④③
口口口⑤
口口③④ |③--④|
口口⑤口 |--⑤-|
46
口口口口 |--①-|
①②口口 |-②--|
口口口口
②①口口

③④口口
⑤口口口
④③口口 |③--④|
口⑤口口 |--⑤-|
47
口口口③ |-①--|
口口②① |②--③|
口口③口
口口①②

口口⑦口
口口口口
④⑤口⑥ |--④-|
口口⑥口 |⑤-⑥⑦|
48
③④⑥口 |--①-|
①②口口 |-②--|
④③口⑤ |③--④|
②①⑤口 |--⑤⑥|
49
口口⑥① |--①-|
口口③口 |-②--|
口口②⑤ |③--④|
口口⑤④ |--⑤⑥|
50
①⑥口口 |--①-|
口③口口 |-②--|
⑤②口口 |③--④|
④⑤口口 |--⑤⑥|
51
口口⑥① |--①-|
口口③口 |-②--|
口口②⑤ |③--④|
口口⑤④ |--⑤⑥|
52
①⑥口口 |--①-|
口③口口 |-②--|
⑤②口口 |③--④|
④⑤口口 |--⑤⑥|
53
口口⑥① |--①-|
口口③口 |-②--|
口口②⑤ |③--④|
口口⑤④ |--⑤⑥|
54
①⑥口口 |--①-|
口③口口 |-②--|
⑤②口口 |③--④|
④⑤口口 |--⑤⑥|
55
口口口口 |----|
口口口口 |----|
口口口口 |----|
口口口口 |----|
56
口口口口 |----|
口口口口 |----|
口口口口 |----|
口口口口 |----|
57
口口⑥① |--①-|
口口③口 |-②--|
口口②⑤ |③--④|
口口⑤④ |--⑤⑥|
58
①⑥口口 |--①-|
口③口口 |-②--|
⑤②口口 |③--④|
④⑤口口 |--⑤⑥|
59
口口口口 |--①-|
口口②① |-②--|
口口口口
口口①②

口口④③
口口口⑤
口口③④ |③--④|
口口⑤口 |--⑤-|
60
⑤⑦⑥口 |--①-|
①②口口 |-②--|
口⑤③④ |③-④-|
②①口口 |⑤-⑥⑦|
61
口口口口 |--①-|
口③②① |-②-③|
口口口口
口口①②

口口⑧口
口口口口
⑤⑥④⑦ |④-⑤-|
口口⑦口 |⑥-⑦⑧|
62
③④⑥口 |--①-|
①②口口 |-②--|
④③口⑤ |③--④|
②①⑤口 |--⑤⑥|
63
口口⑥① |--①-|
口口③⑤ |-②--|
口口②口 |③--④|
口口⑤④ |--⑤⑥|
64
①⑥口口 |--①-|
口③口口 |-②--|
⑤②口口 |③--④|
④⑤口口 |--⑤⑥|
65
口口⑥① |--①-|
口口③口 |-②--|
口口②⑤ |③--④|
口口⑤④ |--⑤⑥|
66
①⑥口口 |--①-|
口③口口 |-②--|
⑤②口口 |③--④|
④⑤口口 |--⑤⑥|
67
口口⑤① |--①-|
口口③口 |-②--|
口口②⑤ |③--④|
口口口④ |--⑤-|
68
①⑦⑥口 |--①-|
⑤口④③ |-②--|
口②口口 |③-④-|
口口口口 |⑤-⑥⑦|
69
⑧口口④ |--①-|
口⑤口② |-②-③|
⑥⑦④口 |④-⑤-|
⑦①①③ |⑥-⑦⑧|
70
口②②口 |--①-|
口口口口 |-②--|
口口口口
口①①口

口口口⑥
口④③口
口口⑤口 |③--④|
④口⑤③ |--⑤⑥|
71
①口②口 |--①-|
口口口口 |-②--|
口①口②
口口口口

⑥口口口
③口④口
口⑤口口 |③--④|
⑤③口④ |--⑤⑥|
72
口②口口 |--①-|
口口口① |-②--|
②口口口
口口①口

⑥口⑥③
口④口口
口⑤③⑤ |③--④|
④⑤⑤口 |--⑤⑥|


不确定度: 0

最終更新:2012年12月18日 01:41