attack in the minor key
Mr.T

EXTREME

Level: 9
BPM: 164
Notes: 747

1
口口口口 |----|
口口口口 |----|
口口口口 |----|
口口口口 |----|
2
口⑤⑦① |①-②-|
④⑧⑥口 |③-④-|
口口②口 |⑤-⑥-|
口③口口 |⑦-⑧-|
3
①⑦⑤口 |①-②-|
口⑥⑧④ |③-④-|
口②口口 |⑤-⑥-|
口口③口 |⑦-⑧-|
4
口口②口 |①---|
口口口口 |②---|
口①①口
口口口口

口口口口
口③口口
口口④口 |③---|
口口口口 |④---|
5
④口口口 |①---|
口口口② |--②③|
①口口① |④---|
口口③口 |----|
6
口①口口 |①②③④|
③⑦②口 |⑤⑥⑦⑧|
口口⑥⑧
⑤口口④

⑬⑬⑩口
口口口⑫
⑪⑨口口 |⑨⑩⑪⑫|
口口口口 |⑬---|
7
口口口口 |①---|
②④②④ |②---|
口口口口 |③---|
③③①① |④---|
8
①④②③ |①---|
①口口③ |②---|
口④②口 |③---|
口口口口 |④---|
9
口口口口 |①---|
口④②口 |②---|
①口口③ |③---|
①④②③ |④---|
10
②④②④ |①---|
口口口口 |②---|
口①①口 |③---|
③口口③ |④---|
11
①口①口 |--①-|
口口口口 |②---|
口②口②
口口口口

⑤口口⑤
口③口③
④口④口 |③-④-|
口口口口 |--⑤-|
12
口口口口 |--①-|
①口①口 |②---|
口口口口
口②口②

口口口口
⑤③⑤③
口口口口 |③-④-|
④口④口 |--⑤-|
13
①口①口 |--①-|
口口口口 |②---|
口口口口
口②口②

⑤③⑤③
口口口口
口口口口 |③-④-|
④口④口 |--⑤-|
14
口③口③ |--①-|
①口①口 |②---|
口②口② |③--④|
④⑤④口 |--⑤-|
15
①③⑤口 |①--②|
⑦⑤口① |③-④-|
口口②⑧ |⑤--⑥|
口⑥口④ |⑦-⑧-|
16
①②⑥口 |①---|
⑦⑤①⑤ |②-③④|
口⑧口口 |⑤--⑥|
口口③④ |⑦-⑧-|
17
①②⑤③ |①---|
⑥⑤④口 |②-③④|
口口口① |⑤---|
口口口口 |⑥---|
18
①②⑧⑤ |①---|
⑦⑤⑥口 |②-③④|
口口③④ |⑤--⑥|
口口口口 |⑦-⑧-|
19
①③口口 |①--②|
⑦⑤⑧① |③-④-|
口口⑤口 |⑤--⑥|
口②⑥④ |⑦-⑧-|
20
①②口口 |①---|
⑦⑤⑥③ |②-③④|
口口④① |⑤--⑥|
口⑧口⑤ |⑦-⑧-|
21
①②口口 |①---|
⑥⑤⑤③ |②-③④|
口口④① |⑤---|
口口口口 |⑥---|
22
⑬⑨⑩⑭ |①②③④|
⑮⑪⑫⑯ |⑤⑥⑦⑧|
③⑦⑧④ |⑨⑩⑪⑫|
①⑤⑥② |⑬⑭⑮⑯|
23
口口⑤口 |①--②|
口④⑧口 |③-④-|
①⑦⑥① |⑤--⑥|
③⑤②口 |⑦-⑧-|
24
口⑧口① |①---|
口口⑥⑤ |②-③④|
①⑦口口 |⑤--⑥|
②⑤③④ |⑦-⑧-|
25
口口⑥② |①--②|
口口口⑧ |③-④-|
①⑦①④ |⑤--⑥|
③⑤⑤口 |⑦-⑧-|
26
口口口口 |①---|
口口⑤⑥ |②---|
①⑤①口 |③-④-|
②③③④ |⑤-⑥-|
27
口口①口 |①--②|
口口口⑧ |③-④-|
①⑦⑥② |⑤--⑥|
③⑤④⑤ |⑦-⑧-|
28
口口②① |①--②|
口口④口 |③-④-|
①⑦⑧⑤ |⑤--⑥|
③⑤⑥口 |⑦-⑧-|
29
①口②口 |①-②-|
口口⑤③ |③④--|
⑧⑥口④ |⑤-⑥⑦|
口⑦口口 |--⑧-|
30
口口口口 |--①-|
④口口① |②③④-|
口口②口
口口③口

口⑤口口
口口⑦⑧
口⑥口口 |⑤-⑥-|
口口口口 |⑦-⑧-|
31
口④口口 |①-②-|
③口⑥口 |--③-|
口口口口 |④-⑤-|
①口②⑤ |--⑥-|
32
口口口口 |①-②-|
③口口口 |--③-|
口④⑦① |④-⑤-|
口⑥②⑤ |⑥-⑦-|
33
①口口⑤ |①-②③|
⑧④⑦③ |--④-|
①口口⑤ |⑤-⑥⑦|
口口②⑥ |--⑧-|
34
①口①口 |①-②-|
口口口口 |--③-|
③口口口
口口②口

⑦口⑥口
口⑤口口
口口口④ |④-⑤-|
口口口⑤ |⑥-⑦-|
35
口④口口 |①-②③|
口口口口 |--④-|
③①④口
口①②口

口口⑧口
⑤口口口
口⑧口口 |⑤-⑥⑦|
⑦口口⑥ |--⑧-|
36
口④⑦⑧ |①-②③|
⑤③口口 |--④-|
①口口④ |⑤-⑥⑦|
口口②⑥ |--⑧-|
37
③⑦口口 |①-②-|
④口口口 |--③④|
⑤⑧口口 |⑤-⑥⑦|
①①②⑥ |--⑧-|
38
口口①口 |①-②-|
口口⑤口 |--③④|
③口口口 |⑤-⑥-|
④口②⑥ |----|
39
⑤②②⑤ |-①--|
①④④① |②--③|
⑥③③口 |--④-|
③②②③ |⑤-⑥-|
40
⑥⑧⑤口 |①---|
口⑦④① |②-③④|
口③②② |⑤-⑥-|
口口⑦⑦ |⑦-⑧-|
41
⑥口口① |①--②|
④口②口 |③-④⑤|
⑤⑧③③ |⑥---|
口口⑦⑦ |⑦-⑧-|
42
口⑤①口 |①---|
⑥④①口 |②-③④|
③⑧②② |⑤-⑥-|
⑦口⑦⑦ |⑦-⑧-|
43
⑥口口口 |①--②|
④口①口 |③-④⑤|
⑤⑨③③ |⑥---|
⑧②⑦⑦ |⑦-⑧⑨|
44
⑤口口③ |①---|
口①口口 |②---|
②⑥②② |③-④-|
④口⑤⑤ |⑤-⑥-|
45
口口④口 |①--②|
口②口口 |③-④-|
①口③③
口口口口

口口口口
⑧口口⑤
⑦口口口 |⑤---|
口口⑥⑥ |⑥-⑦⑧|
46
口①口口 |①---|
口口口口 |②-③④|
口④②②
口③口口

口⑧⑥口
口⑦⑤口
口口口口 |⑤-⑥-|
口口⑦⑦ |⑦-⑧-|
47
口口⑤口 |①--②|
⑦口⑤① |③-④-|
②④③③ |⑤---|
口④⑥⑥ |⑥-⑦-|
48
口①口口 |①---|
口①④口 |②-③④|
口③②②
口口口口

⑥⑧⑤口
口⑦口口
口口口口 |⑤-⑥-|
口口⑦⑦ |⑦-⑧-|
49
⑥口口① |①--②|
④口②口 |③-④⑤|
⑤⑧③③ |⑥---|
口口⑦⑦ |⑦-⑧-|
50
口⑤①口 |①---|
⑥④①⑧ |②-③④|
③口②② |⑤-⑥-|
⑦口⑦⑦ |⑦-⑧-|
51
口口①① |①--②|
口②口口 |③---|
口③③③ |----|
口④④④ |④---|
52
①⑧口口 |①-②-|
②⑦口口 |③-④-|
③⑥③③ |⑤-⑥-|
④⑤⑦⑦ |⑦-⑧-|
53
①口口口 |①-②-|
②口口口 |③-④-|
③口③③
④口口口

口口口口
⑦口口口
口⑥口口 |⑤---|
口⑤⑥⑥ |⑥-⑦-|
54
②②口③ |①---|
④口口口 |②---|
①⑤②② |③-④-|
⑥口⑤⑤ |⑤-⑥-|
55
口口口口 |①---|
口③①口 |②-③④|
④口②② |⑤---|
口⑤⑥⑥ |⑥---|
56
①②④③ |①②③④|
⑤⑥⑧⑦ |⑤⑥⑦⑧|
⑨⑩⑫⑪ |⑨⑩⑪⑫|
⑬⑭⑯⑮ |⑬⑭⑮⑯|
57
①①④① |①--②|
口②⑥③ |--③-|
口口口口 |④--⑤|
⑥⑥口⑤ |--⑥-|
58
④④⑤① |①---|
①①口④ |--②③|
⑤⑤⑥口 |④--⑤|
⑥⑥②③ |--⑥-|
59
②②口① |①---|
①①③② |--②③|
口口口口
口口口口

口口口⑤
口口口口
④④口④ |④---|
⑥⑥口口 |⑤-⑥-|
60
②②口口 |①---|
①①口口 |②-③④|
口口③④
口口口口

口口⑧⑤
⑦⑦⑥口
⑤⑤口口 |⑤--⑥|
口口口口 |⑦-⑧-|
61
①③口口 |①--②|
⑦⑤⑧① |③-④-|
口口⑤口 |⑤--⑥|
口②⑥④ |⑦-⑧-|
62
①②口口 |①---|
⑦⑤⑥③ |②-③④|
口口④① |⑤--⑥|
口⑧口⑤ |⑦-⑧-|
63
①②口口 |①---|
⑥⑤⑤③ |②-③④|
口口④① |⑤---|
口口口口 |⑥---|
64
⑬⑨⑩⑭ |①②③④|
⑮⑪⑫⑯ |⑤⑥⑦⑧|
③⑦⑧④ |⑨⑩⑪⑫|
①⑤⑥② |⑬⑭⑮⑯|
65
口口⑤口 |①--②|
口④⑧口 |③-④-|
①⑦⑥① |⑤--⑥|
③⑤②口 |⑦-⑧-|
66
口⑧口① |①---|
口口⑥⑤ |②-③④|
①⑦口口 |⑤--⑥|
②⑤③④ |⑦-⑧-|
67
口口⑥② |①--②|
口口口⑧ |③-④-|
①⑦①④ |⑤--⑥|
③⑤⑤口 |⑦-⑧-|
68
口口口口 |①---|
口口⑤⑥ |②---|
①⑤①口 |③-④-|
②③③④ |⑤-⑥-|
69
口口①口 |①--②|
口口口⑧ |③-④-|
①⑦⑥② |⑤--⑥|
③⑤④⑤ |⑦-⑧-|
70
口口②① |①--②|
口口④口 |③-④-|
①⑦⑧⑤ |⑤--⑥|
③⑤⑥口 |⑦-⑧-|
71
①②④③ |①-②-|
⑤⑥⑧⑦ |③-④-|
口口口口 |⑤-⑥-|
口口口口 |⑦-⑧-|
72
⑧口口口 |①-②-|
口⑥⑦口 |③-④-|
①②④③ |⑤-⑥-|
⑤口口口 |⑦-⑧-|
73
⑥②⑤③ |①--②|
①口口① |--③-|
④口口④ |④--⑤|
⑥②⑤③ |--⑥-|
74
口④口③ |①---|
①④③① |②-③④|
②②②口
口②口口

口口口口
⑦口口⑦
口口口⑥ |⑤--⑥|
⑥口⑤⑤ |--⑦-|
75
①口①口 |①-②-③-|
口口口口 |④-⑤-⑥-|
②④⑥口
口③⑤口

口⑫⑩⑧
口⑪⑨口
口口口口 |⑦-⑧-⑨-|
口口口⑦ |⑩-⑪-⑫-|
76
口口口口 |①---|
①口口口 |----|
口口口口 |----|
口口口口 |----|


不确定度: 0

最終更新:2013年01月12日 23:08