spring pony
S-C-U

EXTREME

Level: 9
BPM: 150
Notes: 749

1
口口口口 |----|
口口口口 |----|
口口口口 |----|
口口口口 |----|
2
口③口口 |①②③④|
②口④口 |----|
口①口口 |----|
口口口口 |----|
3
口②口口 |①②③④|
③口①口 |----|
口④口口 |----|
口口口口 |----|
4
口口口口 |①②③④|
口口口口 |----|
②③⑥⑦ |⑤⑥⑦⑧|
①④⑤⑧ |----|
5
①口口② |①②③-|
口③口口 |④-⑤⑥|
口⑥口口
④口⑤口

口口⑬口
⑧⑫口口
口口⑪⑦ |-⑦⑧⑨|
口⑩口⑨ |⑩⑪⑫⑬|
6
③④口口 |①-②-|
⑤口⑥⑥ |③④-⑤|
口②⑨⑨ |⑥-⑦⑧|
①⑦⑧⑧ |--⑨-|
7
②口④③ |①-②-|
口口口⑤ |③④-⑤|
①口口口
口口口口

口口口口
⑥⑥口口
⑨⑨口口 |⑥-⑦⑧|
⑧⑧⑦口 |--⑨-|
8
①②③③ |①-②③|
④口⑤⑤ |--④⑤|
⑨⑥⑦⑦ |-⑥⑦-|
⑧口口口 |⑧-⑨-|
9
①②口③ |①--②|
口口口口 |--③-|
口口口口
口口口口

⑦口⑦口
口⑤口⑤
口⑥口⑥ |④-⑤-|
④口④口 |⑥-⑦-|
10
口口口④ |①-②-|
⑤口口口 |③④-⑤|
③口②口
口口口①

口口口口
口口⑥⑥
口口⑨⑨ |⑥-⑦⑧|
口⑦⑧⑧ |--⑨-|
11
③④口② |①-②-|
口口口⑤ |③④-⑤|
①口口口
口口口口

口口口口
⑥⑥口口
⑨⑨口口 |⑥-⑦⑧|
⑧⑧⑦口 |--⑨-|
12
③③②① |①-②③|
⑤⑤口④ |--④⑤|
⑦⑦⑥⑨ |-⑥⑦-|
口口口⑧ |⑧-⑨-|
13
⑤③⑤① |①--②|
口⑦②⑦ |--③-|
⑥口⑥口 |④-⑤-|
口④口④ |⑥-⑦-|
14
⑤④⑨② |①-②-|
口⑩③⑧ |③-④⑤|
⑪口⑦口 |-⑥⑦⑧|
①⑥口口 |⑨⑩⑪-|
15
口口口① |①-②-|
口口②口 |③-④⑤|
口口⑤口
④口口③

口⑨口口
⑧口⑩口
口⑦口⑪ |-⑥⑦⑧|
口口⑥口 |⑨⑩⑪-|
16
口口口口 |①--②|
⑤②⑤② |--③-|
③口③口 |--④-|
④①④① |-⑤--|
17
口口口口 |①---|
④口口口 |----|
③①口① |--②-|
②口口口 |③-④-|
18
①③④② |①-②③|
口⑤⑦⑥ |-④-⑤|
⑨口⑧口 |⑥-⑦-|
⑩口口口 |⑧⑨-⑩|
19
②④③⑤ |①-②③|
⑦⑧⑫⑪ |-④-⑤|
⑥⑨⑬⑩ |⑥⑦⑧⑨|
口口①口 |⑩⑪⑫⑬|
20
②⑤⑨④ |①-②-|
③⑩口⑧ |③-④⑤|
⑪口⑦口 |-⑥⑦⑧|
①⑥口口 |⑨⑩⑪-|
21
④⑨口② |①-②-|
⑧口⑩口 |③-④⑤|
口⑦⑤⑪ |-⑥⑦⑧|
①口⑥③ |⑨⑩⑪-|
22
口口口口 |①--②|
⑤②⑤② |--③-|
③口③口 |--④-|
④①④① |-⑤--|
23
口口口口 |①---|
口口口口 |----|
口①口①
口口口口

口口口口
口口口④
口口口③ |--②-|
口口口② |③-④-|
24
②④③① |①-②③|
⑥⑦⑤口 |-④-⑤|
口⑧口⑨ |⑥-⑦-|
口口口⑩ |⑧⑨-⑩|
25
⑦⑧⑫⑪ |①-②③|
⑥⑨⑬⑩ |-④-⑤|
③口②口 |⑥⑦⑧⑨|
④①⑤口 |⑩⑪⑫⑬|
26
口口口口 |--①②|
⑤⑪⑫⑩ |③④⑤-|
③④⑨⑧ |⑥⑦⑧⑨|
①②⑦⑥ |⑩-⑪⑫|
27
①口口① |①-②③|
口口口口 |-④-⑤|
②③口口
④口口⑤

口口⑨口
口口⑧口
口⑪⑦⑩ |-⑥⑦⑧|
口口⑥口 |⑨-⑩⑪|
28
①②⑦⑥ |①②③④|
③④⑨⑧ |⑤-⑥⑦|
⑤⑬⑭⑩ |⑧⑨⑩-|
口⑪⑫口 |⑪⑫⑬⑭|
29
①口口② |①-②-|
③④⑤⑤ |③④-⑤|
⑩⑪口口 |-⑥⑦⑧|
⑨⑧⑦⑥ |⑨-⑩⑪|
30
④⑤口② |①-②-|
⑦⑧口③ |③-④⑤|
口口①⑥ |-⑥--|
口口口口 |--⑦⑧|
31
④⑤口② |①-②-|
口口①③ |③-④⑤|
⑦口⑥口 |-⑥⑦-|
⑧口⑨口 |⑧-⑨-|
32
③口⑩② |①--②|
口⑨⑧① |--③-|
③⑦⑥② |-④⑤⑥|
口⑤④① |⑦⑧⑨⑩|
33
③①⑯② |①②③④|
⑤⑮⑭④ |⑤⑥⑦⑧|
⑦⑬⑫⑥ |⑨⑩⑪⑫|
⑨⑪⑩⑧ |⑬⑭⑮⑯|
34
③①口② |①-②③|
⑤口口④ |④⑤⑥-|
口口口⑥
口口口口

⑫⑬口口
口⑪口口
口⑨⑩口 |⑦⑧⑨⑩|
口⑦⑧口 |⑪-⑫⑬|
35
⑪⑨①口 |①-②③|
③⑧口② |-④-⑤|
口⑦⑩④ |-⑥⑦⑧|
口⑥⑤口 |⑨-⑩⑪|
36
口⑦⑥口 |①②③④|
⑤口口口 |⑤-⑥⑦|
③口口④
①口口②

口口口口
口⑨⑧口
⑬口⑩⑭ |⑧⑨⑩-|
⑪口口⑫ |⑪⑫⑬⑭|
37
⑥口⑤口 |①-②-|
⑦口④③ |③④-⑤|
⑧①⑪⑩ |-⑥⑦⑧|
⑨口②口 |⑨-⑩⑪|
38
⑤④④⑤ |①②-③|
口③③口 |-④-⑤|
口①口口
口口口②

口口口口
口口口口
⑩⑪口口 |-⑥⑦⑧|
⑥⑦⑧⑨ |⑨-⑩⑪|
39
⑨⑧⑦⑥ |①②-③|
④④口② |-④-⑤|
⑩⑪①③ |-⑥⑦⑧|
⑤⑤口口 |⑨-⑩⑪|
40
口口口口 |①②-③|
②④④② |-④-⑤|
口口①口
③⑤⑤③

⑨⑨⑨⑨
⑧口口⑧
⑥⑦⑦⑥ |-⑥-⑦|
口口口口 |⑧-⑨-|
41
口口口口 |----|
口口口口 |----|
口口口口 |----|
口口口口 |----|
42
⑤②⑤② |①-②-|
④口④口 |③-④⑤|
①口①口
口③口③

口口口口
口⑧口⑧
⑨⑦⑨⑦ |-⑥-⑦|
⑥口⑥口 |⑧-⑨-|
43
②口②口 |①-②-|
口⑤口⑤ |③-④⑤|
口④口④
③①③①

口⑥口⑥
⑧口⑧口
⑦口⑦口 |-⑥-⑦|
口⑨口⑨ |⑧-⑨-|
44
①口③④ |①-②-|
⑩②口口 |③④-⑤|
⑨⑥口口 |-⑥⑦-|
⑤口⑦⑧ |⑧-⑨⑩|
45
①③口③ |①--②|
口口口② |--③-|
⑦口⑤口 |④-⑤-|
口⑥口④ |⑥-⑦-|
46
②⑤②⑤ |①-②-|
口④口④ |③-④⑤|
口①口①
③口③口

口口口口
⑧口⑧口
⑦⑨⑦⑨ |-⑥-⑦|
口⑥口⑥ |⑧-⑨-|
47
口②口② |①-②-|
⑤口⑤口 |③-④⑤|
④口④口
①③①③

⑥口⑥口
口⑧口⑧
口⑦口⑦ |-⑥-⑦|
⑨口⑨口 |⑧-⑨-|
48
④③口① |①-②-|
口口②⑩ |③④-⑤|
口口⑥⑨ |-⑥⑦-|
⑧⑦口⑤ |⑧-⑨⑩|
49
③口③① |①--②|
②⑦口口 |--③-|
④口⑥口 |④-⑤-|
口⑤口口 |⑥-⑦-|
50
②③④① |①-②③|
口口⑨⑤ |④-⑤-|
口⑧⑥① |⑥-⑦-|
口⑦口口 |⑧-⑨-|
51
①⑤口口 |①-②③|
④①口口 |④-⑤-|
③口口口
②口口口

口口⑥口
口⑨口⑦
口口⑧口 |⑥-⑦-|
口口口口 |⑧-⑨-|
52
①④③② |①-②③|
⑤⑨口口 |④-⑤-|
①⑥⑧口 |⑥-⑦-|
口口⑦口 |⑧-⑨-|
53
口口⑤① |①-②③|
口⑨①④ |④-⑤-|
⑥口⑧③ |⑥-⑦-|
口⑦口② |⑧-⑨-|
54
①①口口 |①-②③|
④口口口 |④-⑤-|
③⑤口口
②口口口

口口口口
口口⑥口
口口⑨口 |⑥-⑦⑧|
⑩⑧⑦口 |⑨-⑩-|
55
口口①① |①-②③|
口口⑤④ |④-⑤-|
口口口③
口口口②

口口口口
口口口口
口⑨⑥⑩ |⑥-⑦⑧|
口⑦⑧口 |⑨-⑩-|
56
①①⑤⑤ |①-②③|
④口口口 |④-⑤-|
③口口口
②口口口

⑨⑨口口
口口口⑧
口⑪口⑦ |⑥⑦⑧-|
口⑩口⑥ |⑨-⑩⑪|
57
口口②② |①-②-|
口①⑤口 |③④⑤-|
口口④口
口口③口

⑪⑪⑪⑪
⑥⑩口⑦
⑧口口⑨ |⑥⑦⑧⑨|
口口口口 |⑩-⑪-|
58
口口口口 |①---|
口口口口 |----|
口口口口 |----|
①①①① |----|
59
口口口口 |----|
口口口口 |----|
口口口口
口口口口
60
口⑥口⑤ |①-②③|
口口④口 |④-⑤⑥|
③口口②
口口①口

口口口口
口⑧口⑦
口⑩⑨口 |-⑦⑧-|
口⑫⑪口 |⑨⑩⑪⑫|
61
⑥口⑤④ |①-②③|
⑧口⑦口 |④-⑤⑥|
③⑩⑨② |-⑦⑧-|
口⑫⑪① |⑨⑩⑪⑫|
62
⑤口口① |①②③④|
⑥口口② |--⑤⑥|
口口口③
口口口④

口口口⑨
口口口⑩
⑦口口⑪ |⑦⑧--|
⑧口口⑫ |⑨⑩⑪⑫|
63
⑦①②口 |①②③④|
口③④口 |⑤-⑥⑦|
口⑤口口
口口⑥口

口口⑪口
口⑫口⑩
⑬口⑨口 |-⑧⑨⑩|
⑭⑧口口 |⑪⑫⑬⑭|
64
⑤③⑥口 |①-②③|
口口口口 |④-⑤⑥|
口①口④
口口口②

口口口口
⑦口⑧口
口⑨⑩口 |-⑦⑧-|
口⑪⑫口 |⑨⑩⑪⑫|
65
口⑤④⑥ |①-②③|
口⑦口⑧ |④-⑤⑥|
③⑨⑩② |-⑦⑧-|
口⑪⑫① |⑨⑩⑪⑫|
66
①口口⑤ |①②③④|
②口口⑥ |--⑤⑥|
③口口口
④口口口

⑨口口口
⑩口口口
⑪口口⑦ |⑦⑧--|
⑫口口⑧ |⑨⑩⑪⑫|
67
⑦口口⑥ |①②③④|
口②①⑤ |⑤-⑥⑦|
口口③口
口④口口

口⑪口口
⑩口⑫口
口⑨口⑬ |-⑧⑨⑩|
口口⑧口 |⑪⑫⑬-|
68
口口③口 |①-②-|
口⑤口③ |③-④⑤|
②口④口
口①口①

⑥口口⑨
口口⑧口
口⑦口口 |-⑥-⑦|
⑥口口⑨ |⑧-⑨-|


不确定度: 0

最終更新:2013年01月12日 23:09