JOMANDA
DJ YOSHITAKA

BASIC

Level: 7
BPM: 90-195
Notes: 480

1
口口口口 |----|
口口口口 |----|
口口口口 |----|
口口口口 |----|
2
口①②口 |①---|
口③④口 |②---|
口口口⑤ |③---|
口口口口 |④-⑤-|
3
口口口口 |--①-|
口口口口 |--②-|
①口口口 |--③-|
③④⑤② |④-⑤-|
4
口①②口 |①---|
口③④口 |②---|
口口口⑤ |③---|
口口口口 |④-⑤-|
5
口口口口 |--①-|
口口口口 |--②-|
①口口口 |--③-|
③④口② |④---|
6
口①②口 |①---|
口③④口 |②---|
口口口⑤ |③---|
口口口口 |④-⑤-|
7
口口口口 |--①-|
口口口口 |--②-|
①口口口 |--③-|
③④⑤② |④-⑤-|
8
口①②口 |①---|
口③④口 |②---|
口口口口 |③---|
口口口口 |④---|
9
口口口口 |①---|
口口口口 |②---|
口①②口 |③---|
口③④口 |④---|
10
口①②口 |①---|
口③④口 |②---|
口口口⑤ |③---|
口口口口 |④-⑤-|
11
口口口口 |--①-|
口口口口 |--②-|
①口口口 |--③-|
③④⑤② |④-⑤-|
12
口①②口 |①---|
口③④口 |②---|
口口口⑤ |③---|
口口口口 |④-⑤-|
13
口口口口 |--①-|
口口口口 |--②-|
①口口口 |--③-|
③④口② |④---|
14
口①②口 |①---|
口③④口 |②---|
口口口口 |③---|
口口口口 |④---|
15
口口口口 |①---|
口口口口 |②---|
口①②口 |③---|
口③④口 |④---|
16
口①②口 |①---|
口③④口 |②---|
口口口口 |③---|
口口口口 |④---|
17
口口口口 |①---|
口口口口 |----|
①①①① |----|
口口口口 |----|
18
口①②口 |①-②-|
口③④口 |③-④-|
口口口口 |----|
口口口口 |----|
19
口①②口 |①-②-|
口③④口 |③-④-|
口口口口 |--⑤-|
⑤口口⑤ |----|
20
①口口① |①---|
口口口口 |--②-|
②口口② |----|
口口口口 |----|
21
口口口口 |----|
口口口口 |----|
口口口口 |----|
口口口口 |----|
22
口①②口 |①-②-|
口③④口 |③-④-|
口口口口 |----|
口口口口 |----|
23
口①②口 |①-②-|
口③④口 |③-④-|
口口口口 |--⑤-|
⑤口口⑤ |----|
24
①口口① |①---|
口口口口 |--②-|
②口口② |----|
口口口口 |----|
25
口口口口 |----|
口口口口 |----|
口口口口 |----|
口口口口 |----|
26
口①②口 |①-②-|
口③④口 |③-④-|
口口口口 |----|
口口口口 |----|
27
口①②口 |①-②-|
口③④口 |③-④-|
口口口口 |--⑤-|
⑤口口⑤ |----|
28
①口口① |①---|
口口口口 |--②-|
②口口② |----|
口口口口 |----|
29
口口口口 |----|
口口口口 |----|
口口口口 |----|
口口口口 |----|
30
口①②口 |①-②-|
口③④口 |③-④-|
口口口口 |----|
口口口口 |----|
31
口①②口 |①-②-|
口③④口 |③-④-|
口口口口 |--⑤-|
⑤口口⑤ |----|
32
①口口① |①---|
口口口口 |--②-|
②口口② |----|
口口口口 |----|
33
口口口口 |----|
口口口口 |----|
口口口口 |----|
口口口口 |----|

BPM: 160
34
①口口② |①---|
口口口口 |----|
口口口口 |②---|
口口口口 |----|

BPM: 140
35
口口口口 |①---|
口口口口 |----|
口口口口
①口口口

BPM: 120
口口口口
口口口口
口口口口 |②---|
口口口② |----|

BPM: 90
36
口口口口 |①---|
②①①③ |②-③-|
④①①⑤ |④-⑤-|
⑥口口⑦ |⑥-⑦-|

BPM: 95-120
37
①①口② |①-②-|
③口口④ |③-④-|
⑤口口⑥ |⑤-⑥-|
⑦口口⑧ |⑦-⑧-|

BPM: 130-140
38
口口口口 |①---|
②①①③ |②-③-|
④①①⑤ |④-⑤-|
⑥口口⑦ |⑥-⑦-|

BPM: 150-170
39
①①口② |①-②-|
③口口④ |③-④-|
⑤口口⑥ |⑤-⑥-|
⑦口口⑧ |⑦-⑧-|

BPM: 180-210
40
口①①口 |①---|
口②②口 |----|
口口口口 |②---|
口口口口 |----|

BPM: 210-240
41
口口口口 |①---|
口口口口 |----|
口①①口 |②---|
口②②口 |----|

BPM: 250
42
口①①口 |①---|
口②②口 |----|
口口口口 |②---|
口口口口 |----|

BPM: 270
43
口口口口 |①---|
口口口口 |----|
口①①口 |②---|
口②②口 |----|

BPM: 300
44
口口口口 |①---|
①口口① |----|
①口口① |----|
口口口口 |----|
45
口口口口 |----|
口口口口 |----|
口口口口 |----|
口口口口 |----|
46
口口口口 |----|
口口口口 |----|
口口口口 |----|
口口口口 |----|
47
口口口口 |----|
口口口口 |----|
口口口口 |----|
口口口口 |----|
48
口口口口 |----|
口口口口 |----|
口口口口 |----|
口口口口 |----|

BPM: 195
49
口口口口 |①--②|
①⑤⑥② |--③-|
③口口④ |-④--|
口口口口 |⑤-⑥-|
50
②口口④ |①--②|
口⑤⑤口 |--③-|
口口口口 |-④--|
①口口③ |⑤---|
51
②⑤⑤④ |①--②|
口口口口 |--③-|
口⑤⑤口 |-④--|
①口口③ |⑤---|
52
②口口④ |①--②|
口口口口 |--③-|
口⑤⑤口 |-④--|
①口口③ |⑤---|
53
②口口④ |①--②|
口⑤⑤口 |--③-|
口口口口 |-④--|
①口口③ |⑤---|
54
②口口④ |①--②|
口⑤⑤口 |--③-|
口口口口 |-④--|
①口口③ |⑤---|
55
②⑤⑤④ |①--②|
口口口口 |--③-|
口⑤⑤口 |-④--|
①口口③ |⑤---|
56
口口口口 |①---|
②口口② |--②-|
口口口口 |----|
口①①口 |----|
57
口③③口 |①---|
口口口口 |--②-|
口口口口 |----|
①②②① |③---|
58
②口口④ |①--②|
口⑤⑤口 |--③-|
口口口口 |-④--|
①口口③ |⑤---|
59
②⑤⑤④ |①--②|
口口口口 |--③-|
口⑤⑤口 |-④--|
①口口③ |⑤---|
60
②口口④ |①--②|
口口口口 |--③-|
口⑤⑤口 |-④--|
①口口③ |⑤---|
61
②口口④ |①--②|
口⑤⑤口 |--③-|
口口口口 |-④--|
①口口③ |⑤---|
62
②口口④ |①--②|
口⑤⑤口 |--③-|
口口口口 |-④--|
①口口③ |⑤---|
63
②⑤⑤④ |①--②|
口口口口 |--③-|
口⑤⑤口 |-④--|
①口口③ |⑤---|
64
口口口口 |①---|
②口口② |--②-|
口口口口 |----|
口①①口 |----|
65
口③③口 |①---|
口口口口 |--②-|
口口口口 |----|
①②②① |③---|
66
口口口口 |①---|
口④④口 |--②-|
①③③① |--③-|
口②②口 |--④-|
67
口①①口 |--①-|
②口口② |----|
口口口口 |--②-|
口口口口 |----|
68
口口口口 |①---|
口④④口 |--②-|
①③③① |--③-|
口②②口 |--④-|
69
口①①口 |--①-|
②口口② |----|
口口口口 |--②-|
口口口口 |----|
70
①口口② |①---|
口口口口 |②---|
口口口口 |③---|
③口口④ |④---|
71
①口口② |①---|
口口口口 |②---|
口口口口 |③---|
③口口④ |④---|
72
①口口② |①---|
⑤口口口 |②---|
口口口口 |③---|
③口口④ |④-⑤-|
73
口口①口 |--①-|
口口口口 |--②-|
口口口③ |--③-|
口②口口 |----|
74
口口口口 |----|
口口口口 |----|
口口口口 |----|
口口口口 |----|
75
②口口④ |①--②|
口⑤⑤口 |--③-|
口口口口 |-④--|
①口口③ |⑤---|
76
②⑤⑤④ |①--②|
口口口口 |--③-|
口⑤⑤口 |-④--|
①口口③ |⑤---|
77
②口口④ |①--②|
口口口口 |--③-|
口⑤⑤口 |-④--|
①口口③ |⑤---|
78
②口口④ |①--②|
口⑤⑤口 |--③-|
口口口口 |-④--|
①口口③ |⑤---|
79
②口口④ |①--②|
口⑤⑤口 |--③-|
口口口口 |-④--|
①口口③ |⑤---|
80
②⑤⑤④ |①--②|
口口口口 |--③-|
口⑤⑤口 |-④--|
①口口③ |⑤---|
81
口口口口 |①---|
②口口② |--②-|
口口口口 |----|
口①①口 |----|
82
口③③口 |①---|
口口口口 |--②-|
口口口口 |----|
①②②① |③---|
83
②口口④ |①--②|
口⑤⑤口 |--③-|
口口口口 |-④--|
①口口③ |⑤---|
84
②⑤⑤④ |①--②|
口口口口 |--③-|
口⑤⑤口 |-④--|
①口口③ |⑤---|
85
②口口④ |①--②|
口口口口 |--③-|
口⑤⑤口 |-④--|
①口口③ |⑤---|
86
②口口④ |①--②|
口⑤⑤口 |--③-|
口口口口 |-④--|
①口口③ |⑤---|
87
②口口④ |①--②|
口⑤⑤口 |--③-|
口口口口 |-④--|
①口口③ |⑤---|
88
②⑤⑤④ |①--②|
口口口口 |--③-|
口⑤⑤口 |-④--|
①口口③ |⑤---|
89
口口口口 |①---|
②口口② |--②-|
口口口口 |----|
口①①口 |----|
90
口③③口 |①---|
口口口口 |--②-|
口口口口 |----|
①②②① |③---|
91
口口口口 |①---|
口④④口 |--②-|
①③③① |--③-|
口②②口 |--④-|
92
口①①口 |--①-|
②口口② |----|
口口口口 |--②-|
口口口口 |----|
93
口口口口 |①---|
口④④口 |--②-|
①③③① |--③-|
口②②口 |--④-|
94
口①①口 |--①-|
②口口② |----|
口口口口 |--②-|
口口口口 |----|
95
①口口② |①---|
口口口口 |②---|
口口口口 |③---|
③口口④ |④---|
96
①口口② |①---|
口口口口 |②---|
口口口口 |③---|
③口口④ |④---|
97
①口口② |①---|
⑤口口口 |②---|
口口口口 |③---|
③口口④ |④-⑤-|
98
口口①口 |--①-|
口口口口 |--②-|
口口口③ |--③-|
口②口口 |----|
99
口①口口 |①---|
口口口① |----|
①口口口 |----|
口口①口 |----|


不确定度: 0

タグ:

+ タグ編集
  • タグ:

このサイトはreCAPTCHAによって保護されており、Googleの プライバシーポリシー利用規約 が適用されます。

最終更新:2012年11月11日 19:34