Happy
Sota Fujimori

EXTREME

Level: 9
BPM: 190
Notes: 601

1
口口口口 |----|
口口口口 |----|
口口口口 |----|
口口口口 |----|
2
⑦③④口 |①-②-|
②⑧口⑤ |③-④⑤|
口口⑨口 |---⑥--⑦-⑧-⑨-|
⑪①⑥⑩ |⑩-⑪-|
3
口口③① |①---|
口口口口 |②-③-|
口口口口 |----|
口②口口 |----|
4
口④③⑥ |①-②-|
⑤口⑦② |③④-⑤|
口⑧口口 |---⑥⑦⑧|
⑨口①⑩ |⑨-⑩-|
5
①②口口 |①---|
口口口口 |②-③-|
口口口口 |----|
口口③口 |----|
6
⑦③④口 |①-②-|
②⑧口⑤ |③-④⑤|
口口⑨口 |---⑥--⑦-⑧-⑨-|
⑪①⑥⑩ |⑩-⑪-|
7
口口③① |①---|
口口口口 |②-③-|
口口口口 |----|
口②口口 |----|
8
口④③⑥ |①-②-|
⑤口⑦② |③④-⑤|
口⑧口口 |---⑥⑦⑧|
⑨口①⑩ |⑨-⑩-|
9
①②口口 |①---|
口口口口 |②-③-|
口口口口 |----|
口口③口 |----|
10
①口口① |①---|
④①①口 |----|
口口口③ |--②-|
口②口口 |③-④-|
11
口口②① |①---|
口口①口 |--②-|
口①口口
①口口口

口口口口
口口口④
口口口口 |--③-|
⑤③口口 |④-⑤-|
12
①口口口 |①---|
口①口口 |--②-|
②口①② |----|
口口口① |----|
13
口口①③ |①---|
②口口口 |②-③-|
口口①③ |----|
口④口口 |④---|
14
①口口② |①---|
口①②口 |--②-|
口②①口 |----|
②口口① |----|
15
③口口④ |①---|
④口口② |②---|
①口口③ |③---|
②口口① |④---|
16
口①①口 |①---|
口口口口 |--②-|
②①①② |----|
②口口② |----|
17
口②②口 |①---|
①口口① |----|
②①①② |②---|
口口口口 |----|
18
④⑤口④ |①-②-|
口③②口 |③-④-|
口口口口 |----|
口①①口 |--⑤-|
19
口口口口 |①-②-|
口②③口 |③-④-|
④①①④ |----|
口⑤⑤口 |⑤---|
20
①口②口 |①-②-|
口①⑥③ |③-④-|
⑦④④⑧ |⑤-⑥-|
④⑦口⑤ |⑦-⑧-|
21
口①口口 |①---|
①口口口 |----|
口③②口 |②---|
②口口③ |③---|
22
①④④① |①-②-|
口⑤②口 |③-④-|
口口⑤口 |----|
口口③口 |⑤---|
23
口④④口 |①-②-|
口口口① |③-④-|
①口口⑤ |----|
⑤②③口 |⑤---|
24
②口口① |①-②-|
⑥③①口 |③-④-|
④⑧④⑦ |⑤-⑥-|
口⑤⑦④ |⑦-⑧-|
25
口口①口 |①---|
口口口① |----|
口口口口 |②---|
②口口② |----|
26
口②口口 |①-②-|
①⑤③④ |③---|
④③⑤① |--④-|
口口②口 |--⑤-|
27
②口口① |--①-|
⑤④③口 |--②-|
口③④⑤ |--③-|
①口口② |④-⑤-|
28
③口①口 |①-②-|
口⑤④② |③---|
②④⑤口 |--④-|
口①口③ |--⑤-|
29
②口口① |--①-|
口④⑤③ |--②-|
③⑤④口 |--③-|
①口口② |④-⑤-|
30
口①③⑤ |①-②-|
②④口口 |③---|
口口④② |--④-|
⑤③①口 |--⑤-|
31
①口口④ |--①-|
口⑤③口 |--②-|
②③⑤② |--③-|
④口口① |④-⑤-|
32
④②①口 |①-②-|
⑤口口③ |③---|
③口口⑤ |--④-|
口①②④ |--⑤-|
33
⑤①口② |--①-|
口④口③ |--②-|
③口④口 |--③-|
②口①⑤ |④-⑤-|
34
⑥②②⑤ |①-②-|
③口③口 |③-④-|
口④口④ |--⑤-|
⑤①①⑥ |--⑥-|
35
口②①口 |--①-|
③⑤口④ |--②-|
④口⑤③ |--③-|
口①②口 |④-⑤-|
36
①③③① |①-②-|
口口口口 |③---|
口口口口
②口口②

⑥口口口
口口口⑤
⑤④口⑥ |④-⑤-|
口口口口 |--⑥-|
37
口口口① |--①-|
口④⑤③ |--②-|
③⑤④口 |--③-|
①②②口 |④-⑤-|
38
口④④① |①-②-|
②口口口 |③-④-|
口口口②
①③③口

⑥口口⑥
口⑤口口
口口⑤口 |--⑤-|
口口口口 |--⑥-|
39
口口口⑤ |--①-|
②⑥④② |②-③-|
③④⑥③ |--④-|
⑤①①口 |⑤-⑥-|
40
⑥②①口 |①-②-|
⑤口⑤③ |③---|
③④口④ |④-⑤-|
口①②⑥ |--⑥-|
41
口②口① |--①-|
口口口口 |--②-|
口口口口 |----|
①口②口 |----|
42
口口口口 |①---|
①口口① |----|
口口口口 |----|
口口口口 |----|
43
口口口口 |①---|
口①②口 |----|
口②①口 |②---|
口口口口 |----|
44
口口口口 |①---|
口口口口 |----|
口口口口 |----|
①口口① |----|
45
口口口口 |①---|
口①①口 |----|
口①①口 |----|
口口口口 |----|
46
①口口① |①---|
口口口口 |----|
口口口口 |----|
口口口口 |----|
47
口口口口 |①---|
口①②口 |----|
口口口口 |②---|
口②①口 |----|
48
口口口口 |①---|
口口口口 |----|
口口口口 |----|
①口口① |----|
49
口口口口 |①---|
①口口① |----|
口①①口 |----|
口口口口 |----|
50
⑥②②口 |①---|
口口口口 |②--③|
⑤口③口 |④-⑤-|
口①④口 |⑥---|
51
⑬⑤⑨① |①②③④|
⑭⑥⑩② |⑤⑥⑦⑧|
⑮⑦⑪③ |⑨⑩⑪⑫|
⑯⑧⑫④ |⑬⑭⑮⑯|
52
口口④① |①---|
口②口口 |--②-|
口⑤口① |--③-|
口②③口 |④-⑤-|
53
口①口② |①---|
①口口口 |②-③-|
③⑤口④ |--④-|
口③⑤口 |⑤---|
54
口口①口 |①---|
口②口① |②-③-|
口口③⑤ |--④-|
④口⑤③ |⑤---|
55
⑤①⑥口 |①---|
口④口口 |②③④⑤|
口①③口 |⑥---|
口口口② |----|
56
口③口口 |①---|
③口口④ |②-③-|
口口②⑤ |----|
①①口口 |④-⑤-|
57
①⑤口口 |①---|
⑤①口口 |②-③-|
口口③口 |--④-|
②口④③ |⑤---|
58
口口口③ |①---|
⑥口③⑤ |②-③-|
①口口① |--④-|
④口口② |⑤-⑥-|
59
②⑧⑦口 |①---|
口③口口 |②③④⑤|
口口④① |⑥-⑦-|
口⑥①⑤ |⑧---|
60
口⑤口③ |①---|
①⑥③① |②-③-|
口④口口 |--④-|
②口口口 |⑤-⑥-|
61
④口①⑤ |①---|
口口⑤① |②-③-|
口口③口 |--④-|
②口口③ |⑤---|
62
口口口口 |①---|
①口口① |②-③-|
③口口口
口③口②

口口口口
⑥④口口
口口口⑤ |--④-|
口口⑤口 |⑤-⑥-|
63
②口①② |①---|
口口口① |----|
口②②口 |②---|
口口口口 |----|
64
④口③口 |①---|
口口口③ |②-③-|
①口⑤② |----|
口①口口 |④-⑤-|
65
口口⑤① |①---|
②口①⑤ |②-③-|
④口口③ |--④-|
口口③口 |⑤---|
66
③口口① |①---|
⑤③①⑤ |②-③-|
口口口口 |--④-|
②⑤⑤④ |⑤---|
67
口①①② |①---|
⑦口③⑧ |②③④⑤|
①④口① |⑥-⑦-|
⑤口口⑥ |⑧---|
68
口口③③ |①---|
口口口口 |②-③-|
②④口口 |----|
口①①口 |④---|
69
②口口口 |①---|
口口①① |②-③-|
⑤口③③ |--④-|
口口④④ |⑤---|
70
口口①③ |①---|
口口③① |②-③-|
④④口⑤ |--④-|
②②⑤口 |⑤---|
71
②口口③ |①---|
①口口① |----|
口口口口 |--②-|
口口口口 |③---|
72
⑦③④口 |①-②-|
②⑧口⑤ |③-④⑤|
口口⑨口 |---⑥--⑦-⑧-⑨-|
⑪①⑥⑩ |⑩-⑪-|
73
口口③① |①---|
口口口口 |②-③-|
口口口口 |----|
口②口口 |----|
74
口④③⑥ |①-②-|
⑤口⑦② |③④-⑤|
口⑧口口 |---⑥⑦⑧|
⑨口①⑩ |⑨-⑩-|
75
①②口口 |①---|
口口口口 |②-③-|
口口口口 |----|
口口③口 |----|
76
⑦③④口 |①-②-|
②⑧口⑤ |③-④⑤|
口口⑨口 |---⑥--⑦-⑧-⑨-|
⑪①⑥⑩ |⑩-⑪-|
77
口口③① |①---|
口口口口 |②-③-|
口口口口 |----|
口②口口 |----|
78
口④③⑥ |①-②-|
⑤口⑦② |③④-⑤|
口⑧口口 |---⑥⑦⑧|
⑨口①⑩ |⑨-⑩-|
79
①②口口 |①---|
④口口⑤ |②-③-|
口口口口 |--④-|
口口③口 |⑤---|


不確定度: 0

最終更新:2013年02月26日 17:07