Vanity
Vivian

EXTREME

Level: 9
BPM: 125-150
Notes: 806

BPM: 125
1
口口口口 |----|
口口口口 |----|
口口口口 |----|
口口口口
2
口口口口 |----|
口口口口 |----|
口口口口 |----|
口口口口
3
口口口口 |①---|
③①②③ |②---|
③②①③ |③---|
口口口口
4
口口口口 |----|
口口口口 |----|
口口口口 |----|
口口口口
5
口③③口 |①---|
口②①口 |②---|
口①②口 |③---|
口③③口
6
口口口口 |----|
口口口口 |----|
口口口口 |----|
口口口口
7
口口③口 |①---|
口①②③ |②---|
③②①口 |③---|
口③口口
8
口口口口 |----|
口口口口 |----|
口口口口 |----|
口口口口
9
口③口口 |①---|
③②①口 |②---|
口①②③ |③---|
口口③口
10
口口口口 |----|
口口口口 |----|
口口口口 |----|
口口口口
11
口口口口 |①---|
口口口③ |②---|
口口口② |③---|
①口①①
12
口口口口 |①---|
③口口口 |②---|
②口口口 |③---|
①①口①
13
口口③口 |①---|
口口②口 |②---|
口口①① |③---|
①①口口
14
口③口口 |①---|
口②口口 |②---|
①①口口 |③---|
口口①①

BPM: 150
15
口③口口 |①---|
①口④① |--②-|
①⑤口① |③④⑤-|
②口口②
16
口口③① |①②③④|
④⑥口口 |⑤⑥|
口口⑤口
口②口口
17
②③口④ |①--②|
口口口① |--③-|
口③口口 |④-|
④口②①
18
口口③口 |①--②|
②①口④ |--③-|
④口③口 |④-|
口①口②
19
口①口② |①--②|
④口③口 |--③-|
口①口④ |④-|
口②③口
20
④②①③ |①--②|
口口口口 |--③-|
口口②口 |④-|
①口口口
21
⑫⑪⑩⑨ |①-②③|
①③②① |④-⑤-|
口⑥④口 |⑥⑦⑧-|
⑤⑧⑦⑤ |⑨⑩⑪⑫|
22
⑨⑩⑪⑫ |①-②③|
③①①② |④-⑤-|
⑥⑤⑤④ |⑥⑦⑧-|
⑧口口⑦ |⑨⑩⑪⑫|
23
口口口口 |①---|
口①①口 |--②-|
③③口口 |----|
口口②② |③---|
24
口③②口 |--①-|
口口口口 |----|
口口口口 |②---|
①②③① |③---|
25
①口③① |①---|
②①①口 |--②-|
口口口③ |----|
口②口口 |③---|
26
口口口口 |----|
口口口口 |----|
口口口口 |----|
口口口口 |----|
27
口①①口 |①---|
口口口② |--②-|
①口口①
口口②口

口③口口
口口口口
③口口口 |----|
口口口口 |③---|
28
口口口口 |----|
口口口口 |----|
口口口口 |----|
口口口口 |----|
29
口口①口 |①---|
①口口口 |--②-|
口口口①
口①②②

口口口口
③③口口
口口口口 |----|
口口口口 |③---|
30
口口口口 |----|
口口口口 |----|
口口口口 |----|
口口口口 |----|
31
口⑥②口 |①-②③|
⑤③⑦① |④-⑤-|
⑪⑪⑩⑨ |⑥⑦⑧-|
⑤⑧④① |⑨⑩⑪-|
32
口⑥②口 |①-②③|
⑤③⑦① |④-⑤-|
⑨⑩⑪⑪ |⑥⑦⑧-|
⑤⑧④① |⑨⑩⑪-|
33
②⑤①⑥ |①-②③|
⑤③⑦① |④-⑤-|
⑪⑪⑩⑨ |⑥⑦⑧-|
⑧⑧④④ |⑨⑩⑪-|
34
②⑤①⑥ |①-②③|
⑤③⑦① |④-⑤-|
⑨⑩⑪⑪ |⑥⑦⑧-|
⑧⑧④④ |⑨⑩⑪-|
35
口⑥②口 |①-②③|
⑤③⑦① |④-⑤-|
⑪⑪⑩⑨ |⑥⑦⑧-|
⑧⑤①④ |⑨⑩⑪-|
36
口⑥②口 |①-②③|
⑤③⑦① |④-⑤-|
⑨⑩⑪⑪ |⑥⑦⑧-|
⑧⑤①④ |⑨⑩⑪-|
37
④⑦③⑧ |①-②③|
⑤①⑤① |④-⑤-|
⑨⑩⑪⑪ |⑥⑦⑧-|
口②⑥口 |⑨⑩⑪-|
38
口口口口 |①-②③|
⑤②③① |④-⑤-|
口口口口
⑤④④①

口⑦⑥⑪
口口口⑪
⑩⑧⑧⑨ |⑥⑦⑧-|
口口口口 |⑨⑩⑪-|
39
①④口④ |①---|
②⑤②口 |②---|
口口⑤口 |③-④-|
③口③① |--⑤-|
40
⑥口⑥口 |--①②|
③口②① |③-④-|
⑦⑦口口 |⑤-⑥-|
④④⑤口 |--⑦-|
41
④①④① |①-②-|
①④①④ |③-④-|
口口口口
口口③②

口⑦口⑦
口口⑧口
⑦口⑦口 |⑤-⑥-|
⑤⑥口口 |⑦-⑧-|
42
②口②口 |①-②-|
①口口口 |③-④-|
口②口②
③口④口

口⑦⑦口
口⑥口⑥
口口口口 |⑤--⑥|
口⑤口⑤ |--⑦-|
43
②口口① |①---|
①口口口 |②---|
口口②①
①口口口

口口④⑤
口⑤口⑤
口③口⑤ |③-④-|
口④口③ |--⑤-|
44
口口口口 |--①-|
①口口口 |----|
①口①口 |----|
①口口口 |----|
45
④④①① |①-②-|
①口③④ |③-④-|
口②口口
③口口②

口口⑦⑦
⑦⑤口口
⑧口口⑥ |⑤-⑥-|
口⑥⑤⑧ |⑦-⑧-|
46
②②⑤⑤ |①-②-|
⑤③①② |③-④-|
口口口④ |⑤---|
①④③口 |----|
47
①⑦口口 |①-②-|
⑧④口① |③-④-|
③②口② |⑤-⑥-|
⑤⑥③③ |⑦-⑧-|
48
①⑦①口 |①-②-|
⑧④②口 |③-④-|
③②口口 |⑤-⑥-|
⑤⑥③③ |⑦-⑧-|
49
①口⑦① |①-②-|
口②④⑧ |③-④-|
口③②③ |⑤-⑥-|
③口⑥⑤ |⑦-⑧-|
50
口口口① |①-②-|
口口④口 |③-④-|
口口②③
口口口口

⑦口口⑦
口口口口
口口口口 |⑤-⑥-|
⑥口口⑤ |⑦---|
51
口①③口 |①②-③|
②口口④ |④---|
③口口①
口④②口

口⑥⑧口
⑦⑤⑤口
⑧⑤⑤⑥ |--⑤-|
口口⑦口 |⑥⑦-⑧|
52
②口口③ |①--②|
口口口① |--③-|
口口口口
③①口②

⑥口口口
口⑤④口
口④⑤口 |-④--|
口口口⑥ |⑤-⑥-|
53
口②④口 |①②-③|
①口口③ |④---|
④口口②
口③①口

口⑥⑧口
⑦⑤⑤口
⑧⑤⑤⑥ |--⑤-|
口口⑦口 |⑥⑦-⑧|
54
②口口③ |①--②|
口口口① |--③-|
口口口口
③①口②

⑥口口口
口⑤④口
口④⑤口 |-④--|
口口口⑥ |⑤-⑥-|
55
⑥口②口 |①-②③|
③口④口 |④-⑤-|
⑤口口① |--⑥-|
⑤口口⑥
56
⑥口口⑤ |①-②③|
口①口⑤ |④-⑤-|
口②①③ |--⑥-|
口④口口
57
口②口口 |①-②③|
③④口口 |④-⑤-|
⑤口⑥口 |--⑥-|
⑤⑥口①
58
⑥口②口 |①-②③|
⑥口④③ |④-⑤-|
口①口⑤ |--⑥-|
口口①⑤
59
口①口⑤ |①-②③|
口②口⑦ |④-⑤-|
①④③口 |⑥-⑦-|
口口口⑥
60
⑤口①口 |①-②③|
⑦口②口 |④-⑤-|
口③④① |⑥-⑦-|
⑥口口口
61
口①口⑤ |①-②③|
口②口⑦ |④-⑤-|
①④③口 |⑥-⑦-|
口口口⑥
62
⑤口①口 |①-②③|
⑦口②口 |④-⑤-|
口③④① |⑥-⑦-|
⑥口口口
63
口口①① |①-②③|
口口③② |④-⑤-|
口⑤口④ |-⑥--|
⑥⑤⑤⑥
64
①①口口 |①-②③|
②③口口 |④-⑤-|
④口⑤口 |-⑥--|
⑥⑤⑤⑥
65
口口①① |①-②③|
口口③② |④-⑤-|
口⑤口④ |-⑥--|
⑥⑤⑤⑥
66
①①口口 |①-②③|
②③口口 |④-⑤-|
④口⑤口 |-⑥--|
⑥⑤⑤⑥
67
口①①① |①-②③|
口口③② |④-⑤-|
口⑤口④ |-⑥--|
⑥⑤⑤⑥
68
①①①口 |①-②③|
②③口口 |④-⑤-|
④口⑤口 |-⑥--|
⑥⑤⑤⑥
69
①①①① |①-②③|
口口③② |④-⑤-|
口⑤口④ |-⑥--|
⑥⑤⑤⑥
70
①①①① |①-②③|
②③口口 |④-⑤-|
④⑥口口 |-⑥--|
口口⑤口
71
⑥①口⑥ |①-②③|
口⑤⑤② |④-⑤-|
口口③④ |-⑥--|
⑤①口⑤
72
⑥口①⑥ |①-②③|
②⑤⑤口 |④-⑤-|
④③口口 |-⑥--|
⑤口①⑤
73
⑥①口⑥ |①-②③|
口⑤⑤② |④-⑤-|
口口③④ |-⑥--|
⑤①口⑤
74
⑥口①⑥ |①-②③|
②⑤⑤口 |④-⑤-|
④③口口 |-⑥--|
⑤口①⑤
75
⑥①口⑥ |①-②③|
口⑤⑤② |④-⑤-|
口口③④ |-⑥--|
⑤①口⑤
76
⑥口①⑥ |①-②③|
②⑤⑤口 |④-⑤-|
④③口口 |-⑥--|
⑤口①⑤
77
⑥①口⑥ |①-②③|
口口口② |④-⑤-|
口口③④ |-⑥--|
⑤①口⑤
78
口②①口 |①-②③|
口口③口 |④-⑤-|
⑤④口⑤ |-⑥--|
⑥口①⑥
79
②③④⑥ |①-②③|
口①⑤⑦ |④-⑤-|
口⑤①⑧ |⑥⑦⑧-|
口口口口
80
口口口口 |①-②③|
⑧①⑤口 |④-⑤-|
⑦⑤①口 |⑥⑦⑧-|
⑥④③②
81
⑥④③② |①-②③|
⑦①⑤口 |④-⑤-|
⑧⑤①口 |⑥⑦⑧-|
口口口口
82
口口口口 |①-②③|
口①⑤⑧ |④-⑤-|
口⑤①⑦ |⑥⑦⑧-|
②③④⑥
83
①①④② |①-②③|
⑦⑤⑧口 |④-⑤-|
③口①⑥ |⑥⑦⑧-|
口⑤⑤口
84
⑥②口③ |①-②③|
⑧⑤口① |④-⑤-|
口①⑤⑦ |⑥⑦⑧-|
④口⑤①
85
⑦②①口 |①-②③|
口⑤⑤① |④-⑤-|
④①口⑥ |⑥⑦⑧-|
口⑧⑤③
86
⑥④①⑤ |①-②③|
②⑦⑦口 |④-⑤-|
⑤口①⑥ |⑥-⑦-|
①⑦⑦③


不確定度: 0

最終更新:2013年03月29日 20:39