Across the nightmare
Jimmy Weckl

EXTREME

Level: 9
BPM: 150
Notes: 636

1
口口口口 |----|
口口口口 |----|
口口口口 |----|
口口口口 |----|
2
口⑫⑬① |①②③④|
⑧②③⑨ |⑤⑥⑦⑧|
④⑭⑮⑤ |⑨⑩⑪⑫|
⑩⑥⑦⑪ |⑬⑭⑮-|
3
口口口① |①-②③|
②口①口 |--④-|
口口口③
口④③口

口⑧口口
口口⑦⑤
⑥口⑦口 |⑤-⑥⑦|
口口口⑤ |--⑧-|
4
口口口① |①-②③|
口口⑤③ |--④-|
④口⑤① |⑤--⑥|
②⑥⑥③ |----|
5
②⑧①⑤ |①-②③|
⑥口⑤① |--④-|
口④⑦③ |⑤-⑥⑦|
口口⑦③ |--⑧-|
6
口口③③ |①-②③|
口口⑤① |--④-|
④口⑤① |⑤--⑥|
②⑥⑥口 |----|
7
口口①⑤ |①-②③|
口④⑤① |--④-|
⑥⑧⑦③ |⑤-⑥⑦|
②口⑦③ |--⑧-|
8
口口③⑤ |①-②③|
②口⑤③ |--④-|
④口口① |⑤--⑥|
口⑥⑥① |----|
9
⑥口①⑤ |①-②③|
②口⑤⑦ |--④-|
口⑧③① |⑤-⑥⑦|
④口⑦③ |--⑧-|
10
口口口③ |①-②③|
②④③口 |--④-|
口口①①
口口口口

⑦⑤⑤⑦
口口口口
口⑥⑥口 |⑤--⑥|
口口口口 |--⑦-|
11
口口④口 |--①-|
①⑤⑤① |②-③-|
口口⑥② |④-⑤-|
③⑦⑦③ |⑥-⑦-|
12
①⑨⑩② |①②③④|
③⑪⑫④ |⑤⑥⑦⑧|
⑤⑬⑭⑥ |⑨⑩⑪⑫|
⑦⑮口⑧ |⑬⑭⑮-|
13
①口口① |①-②-|
③口口③ |③-④-|
②口口②
④口口④

⑧口口⑧
口⑤⑤口
口口口口 |⑤-⑥⑦|
口⑥⑦口 |--⑧-|
14
口②①口 |①-②③|
口口③口 |--④-|
④口③①
口口口口

口口⑦口
⑥口口⑤
口⑧口⑦ |⑤-⑥⑦|
口口口⑤ |--⑧-|
15
①⑥⑦① |①-②-|
④③③④ |③-④-|
⑧口口⑧ |⑤-⑥⑦|
⑤②②⑤ |--⑧-|
16
口口口③ |①-②③|
②口③口 |--④-|
口口①口
④口①口

口口⑤口
口⑨⑩⑤
口⑦⑧⑥ |⑤--⑥|
口口⑥口 |⑦⑧⑨⑩|
17
①口口① |①-②-|
③口口③ |③-④-|
口口口口
②④④②

口⑥⑦口
口口口口
⑤口口⑤ |⑤-⑥⑦|
⑧口口⑧ |--⑧-|
18
②口口口 |①-②③|
口口①口 |--④-|
口④①③
口口③口

口口口⑤
口口口⑤
⑥口⑦口 |⑤-⑥⑦|
⑧口口⑦ |--⑧-|
19
口①①口 |①-②③|
⑥②③⑦ |④⑤⑥⑦|
口口口口
口④⑤口

⑧口口⑨
口口⑭口
⑩⑬口⑪ |⑧⑨⑩⑪|
⑫口口口 |⑫-⑬⑭|
20
口①②⑥ |①-②③|
⑦③口口 |④⑤⑥⑦|
口口④口
口⑤口口

口口口口
口⑩⑩口
口⑨口⑧ |⑧--⑨|
⑨口⑧口 |--⑩-|
21
口口④口 |--①-|
①⑤⑤① |②-③-|
口口⑥② |④-⑤-|
③⑦⑦③ |⑥-⑦-|
22
①⑨⑩② |①②③④|
③⑪⑫④ |⑤⑥⑦⑧|
⑤⑬⑭⑥ |⑨⑩⑪⑫|
⑦⑮口⑧ |⑬⑭⑮-|
23
①⑤⑦③ |①②③④|
②⑥⑧④ |⑤⑥⑦⑧|
⑨⑬⑮⑪ |⑨⑩⑪⑫|
⑭⑩⑫口 |⑬⑭⑮-|
24
②⑩口④ |①②③④|
⑨①③口 |⑤⑥⑦⑧|
⑤口⑫⑦ |⑨⑩⑪⑫|
⑬⑥⑧⑪ |⑬---|
25
②⑤⑥④ |①②③④|
⑦①③⑧ |⑤⑥⑦⑧|
口口口口
口口口口

⑬口口口
口⑭口口
⑩口⑮⑫ |⑨⑩⑪⑫|
口⑨⑪⑯ |⑬⑭⑮⑯|
26
口③④口 |①②③④|
⑤口②⑥ |⑤⑥⑦⑧|
⑦①口⑧
口口口口

口口口口
口口口口
口⑬⑫口 |⑨⑩⑪⑫|
⑪⑨⑩口 |⑬---|
27
①⑤⑦③ |①②③④|
②⑥⑧④ |⑤⑥⑦⑧|
⑨⑬⑮⑪ |⑨⑩⑪⑫|
⑭⑩⑫口 |⑬⑭⑮-|
28
②⑩口④ |①②③④|
⑨①③口 |⑤⑥⑦⑧|
⑤口⑫⑦ |⑨⑩⑪⑫|
⑬⑥⑧⑪ |⑬---|
29
②⑤⑥④ |①②③④|
⑦①③⑧ |⑤⑥⑦⑧|
口口口口
口口口口

⑬口口口
口⑭口口
⑩口⑮⑫ |⑨⑩⑪⑫|
口⑨⑪⑯ |⑬⑭⑮⑯|
30
口③④口 |①②③④|
⑤口②⑥ |⑤⑥⑦⑧|
⑦①口⑧
口口口口

⑪口口⑫
口⑩口口
口⑪⑫口 |⑨-⑩-|
口⑨口口 |⑪⑫--|
31
口①①口 |①---②-|
口口口② |--③---|
口口口③
口口③②

⑥口⑥口
⑤口口口
④口口口 |④---⑤-|
⑤④口口 |--⑥---|
32
口①口② |①---②-|
口③口③ |--③---|
口①口②
口口口口

口口口口
⑥口口口
口⑤口口 |④---⑤-|
⑥④⑤④ |--⑥---|
33
②③②口 |①---②-|
口口③口 |--③---|
①口①口
口口口口

口口口④
口⑤口⑤
口口⑥④ |④---⑤-|
口口口⑥ |--⑥---|
34
口③口④ |①---②-|
③⑤⑤④ |--③---|
②口口口 |④---|
①②①口 |⑤---|
35
⑦①①④ |①-②-|
口口⑧⑩ |③-④⑤|
口⑤⑥② |⑥⑦⑧-|
③⑨⑨③ |⑨-⑩-|
36
口口①口 |①-②-|
口⑤④口 |③-④⑤|
口口⑥② |⑥--⑦|
③⑦⑦③ |----|
37
③口②① |①-②-|
⑦口⑥⑩ |③-④⑤|
⑤口④③ |⑥⑦⑧-|
口⑨⑨⑧ |⑨-⑩-|
38
口口①⑥ |①-②-|
口③④口 |③-④⑤|
⑤口③② |⑥--⑦|
口⑦⑦口 |----|
39
⑤⑨⑨⑧ |①-②-|
口③③① |③-④⑤|
口⑦②⑩ |⑥⑦⑧-|
口口⑥④ |⑨-⑩-|
40
口口⑥口 |①-②-|
口③③② |③-④⑤|
⑤口①口 |⑥--⑦|
口⑦⑦④ |----|
41
⑨⑤⑨⑧ |①-②-|
口③③① |③-④⑤|
⑦口②④ |⑥⑦⑧-|
口口⑥⑩ |⑨-⑩-|
42
口口口口 |①②③-|
口④④③ |④-⑤-|
口口①⑤
口②口口

⑦⑥⑥⑦
口口口口
口⑧⑧口 |⑥--⑦|
口口口口 |--⑧-|
43
口口④口 |--①-|
①⑤⑤① |②-③-|
口口⑥② |④-⑤-|
③⑦⑦③ |⑥-⑦-|
44
①⑨⑩② |①②③④|
③⑪⑫④ |⑤⑥⑦⑧|
⑤⑬⑭⑥ |⑨⑩⑪⑫|
⑦⑮口⑧ |⑬⑭⑮-|
45
①⑦⑩④ |①②③④|
②⑧⑪⑤ |⑤⑥⑦⑧|
③⑨⑫⑥ |⑨⑩⑪⑫|
⑬⑭⑮⑯ |⑬⑭⑮⑯|
46
①口口口 |①---|
口③④② |②---|
口⑤⑥口 |③④⑤⑥|
口口口口 |----|
47
口①①口 |①---|
⑤③⑥④ |②---|
③⑤④⑥ |③--④|
口②②口 |-⑤-⑥|
48
口口口口 |---①|
②口口③ |----|
口②③口 |②③-④|
①④④口 |----|
49
③④④⑧ |①②③-|
⑦⑨②口 |④-⑤-|
①⑤⑤⑩ |⑥-⑦-|
口口口⑥ |⑧⑨⑩-|
50
口③口口 |①-②-|
④口②口 |③-④-|
口口③口
②①①④

口口⑥口
口⑤口⑥
⑤口口口 |⑤⑥-⑦|
口⑦⑦口 |----|
51
①口口口 |①②③④|
⑦口④口 |⑤⑥⑦⑧|
口⑤⑥⑧
③口口②

⑬⑪⑫⑭
口⑮口⑩
⑨口口口 |⑨⑩⑪⑫|
口口⑯口 |⑬⑭⑮⑯|
52
口⑩⑩口 |①②③④|
⑦⑩⑩⑧ |⑤⑥⑦⑧|
⑨③②⑥ |⑨--⑩|
⑤①口④ |----|


不確定度: 0

最終更新:2013年02月26日 17:17