この子の七つのお祝いに
あさき

EXTREME

Level: 9
BPM: 161
Notes: 671

1
口口口口 |----|
口口口口 |----|
口口口口 |----|
口口口口 |----|
2
口口口口 |----|
口口口口 |----|
口口口口 |----|
口口口口 |----|
3
口口口口 |----|
口口口口 |----|
口口口口 |----|
口口口口 |----|
4
①口口口 |①--②|
②①口口 |--③-|
③②①口 |----|
口③②① |----|
5
口③⑥⑥ |①-②-|
④口①① |③-④-|
口②口口 |⑤-⑥-|
⑦⑦⑤口 |⑦---|
6
①②③口 |①--②|
口①②③ |--③-|
口口①② |----|
口口口① |----|
7
口②③④ |①-②-|
口①⑤③ |③-④-|
⑥口①② |⑤-⑥-|
⑦⑥口口 |⑦---|
8
⑤⑤口口 |①-②-|
⑥⑧③③ |③-④-|
⑦⑦④② |⑤-⑥-|
口口①① |⑦-⑧-|
9
⑦口口口 |①-②-|
口⑥③③ |③-④-|
⑤口④② |⑤-⑥-|
口口①① |⑦---|
10
⑤⑤口口 |①-②-|
⑥⑧③③ |③-④-|
⑦⑦④② |⑤-⑥-|
口口①① |⑦-⑧-|
11
⑦口⑧口 |①-②-|
口⑥③③ |③-④-|
⑤口④② |⑤-⑥-|
口口①① |⑦-⑧-|
12
口①口① |①--②|
口口③口 |③-④-|
口口④口
口口②口

口⑦口口
口口口口
口口口⑥ |--⑤-|
⑤口口口 |⑥-⑦-|
13
①口①口 |①--②|
口③口口 |③-④-|
口④口口
口②口口

口口口⑤
口口口⑥
口口口⑦ |--⑤⑥|
⑨⑨口⑧ |⑦⑧-⑨|
14
①①⑤⑤ |---①|
口⑥②口 |-②③-|
④⑦③④ |④--⑤|
口口口口 |-⑥⑦-|
15
⑦口口⑦ |①②③④|
②口③① |⑤⑥-⑦|
⑥口④⑥ |--⑧-|
⑧口⑤⑧ |----|
16
⑧⑦口⑤ |①②③④|
①口⑥口 |⑤⑥⑦⑧|
口②④口
口口③口

口口口口
口口口⑪
⑨口口⑫ |⑨⑩⑪⑫|
⑩口⑭⑬ |⑬-⑭-|
17
口口④③ |①-②③|
口①⑤⑦ |④⑤⑥⑦|
口口⑥口
口②口口

⑪口口口
口⑫口口
⑬口口⑧ |⑧⑨⑩-|
口口⑩⑨ |⑪⑫⑬-|
18
⑧⑨②① |①②③④|
⑭口③⑩ |⑤-⑥⑦|
⑫⑤④⑪ |⑧⑨⑩⑪|
⑬口⑥⑦ |⑫-⑬⑭|
19
口口⑤④ |①②③④|
口①⑥⑧ |⑤⑥⑦⑧|
口②⑦口
口③口口

⑫口口口
口⑬口口
⑭口口⑨ |⑨⑩⑪-|
口口⑪⑩ |⑫⑬⑭-|
20
⑨⑩②① |①②③④|
⑭⑬③⑪ |⑤⑥⑦⑧|
⑮⑤④⑫ |⑨⑩⑪⑫|
⑯⑥⑦⑧ |⑬⑭⑮⑯|
21
⑪口④③ |①-②-|
口⑫⑤⑦ |③④⑤⑥|
⑬①⑥⑧ |⑦⑧⑨⑩|
口②⑩⑨ |⑪⑫⑬-|
22
⑨⑩②① |①②③④|
⑬⑪③⑤ |⑤⑥⑦⑧|
⑭⑫④⑥ |⑨⑩⑪⑫|
⑮⑯⑧⑦ |⑬⑭⑮⑯|
23
④⑤①⑧ |①②③-|
口⑥⑦② |④⑤⑥⑦|
口⑩③⑨ |⑧-⑨-|
口口⑪口 |⑩-⑪-|
24
①⑤口⑤ |①---|
口口④② |--②-|
①④①口 |--③-|
③②③② |④-⑤-|
25
①口①口 |①---|
③②③② |--②-|
①④口⑤ |--③-|
⑤口④② |④-⑤-|
26
①⑤口⑤ |①---|
口口④② |--②-|
①④①口 |--③-|
③②③② |④-⑤-|
27
口口⑦口 |①②-③|
①⑨⑧③ |④-⑤⑥|
②⑩口④ |-⑦⑧-|
⑤⑥口口 |⑨-⑩-|
28
①⑥口⑥ |①---|
口口⑤③ |②-③-|
①⑤①② |--④-|
④③④③ |⑤-⑥-|
29
①口①口 |①---|
④③④③ |②-③-|
①⑤②⑥ |--④-|
⑥口⑤③ |⑤-⑥-|
30
①⑥口⑥ |①---|
口②⑤③ |②-③-|
①⑤①口 |--④-|
④③④③ |⑤-⑥-|
31
①口④口 |①②③-|
②口口口 |④-⑤⑥|
③口口⑤ |----|
⑦口口⑥ |⑦---|
32
①口口口 |①②③④|
口⑥②⑧ |⑤⑥⑦⑧|
⑤③⑦④
口口口口

口口⑨口
⑩口⑬口
口口口口 |⑨⑩⑪-|
⑫⑭口⑪ |⑫-⑬⑭|
33
口口⑤① |①②③④|
口②口口 |⑤⑥⑦⑧|
④⑥③⑧
口口⑦口

⑨⑮口⑬
⑭口口⑩
口口口口 |⑨⑩⑪⑫|
⑪口口⑫ |⑬⑭⑮-|
34
口口口口 |----|
口口口口 |----|
口口口口 |----|
口口口口
35
口口口口 |----|
口口口口 |----|
口口口口 |----|
口口口口
36
①口⑦口 |①②③-|
⑧⑤②口 |④⑤⑥-|
④③⑥口 |⑦⑧⑨-|
⑩⑪口⑨ |⑩⑪--|
37
①口口口 |①②③④|
口⑥②⑧ |⑤⑥⑦⑧|
⑤③⑦④
口口口口

口口⑨口
⑩口⑭口
口口口口 |⑨⑩⑪⑫|
⑬⑫口⑪ |⑬-⑭-|
38
口口⑤① |①②③④|
口②口口 |⑤⑥⑦⑧|
④⑥③⑧
口口⑦口
39
①⑦口⑤ |①②③④|
⑥口口② |⑤⑥⑦-|
口口口口 |-|
③口口④
40
口口①口 |①--②|
口⑥口口 |--③-|
①③③④ |④--⑤|
口⑤②口 |--⑥-|
41
①口⑤① |①--②|
③口口③ |--③-|
④口⑥④ |④---|
②口⑦② |⑤-⑥⑦|
42
口口口① |①-②-|
口口②口 |③-④-|
⑤③口③ |⑤---|
④口口口
43
①③①口 |①-②-|
口④⑤口 |③④⑤⑥|
口口⑥口
口②口②

⑩口口⑧
⑪口口⑨
⑦⑫口口 |⑦-⑧⑨|
⑬口口口 |⑩⑪⑫⑬|
44
口口口口 |①-②-|
口③③口 |③-④-|
口口口①
口④④②
45
③口口④ |①-②-|
②⑤⑤② |③-④-|
③口①④ |⑤---|
口口口口
46
口口③口 |①②③④|
④口口口 |⑤⑥⑦⑧|
⑧口⑦口
⑥②⑤①

口⑩口⑨
口⑫口⑪
口⑭口⑬ |⑨⑩⑪⑫|
口⑯口⑮ |⑬⑭⑮⑯|
47
⑧口⑦⑩ |①②③④|
⑥口⑤⑫ |⑤⑥⑦⑧|
④口③⑨ |⑨-⑩-|
②⑪①⑪ |⑪-⑫-|
48
口②②口 |①-②-|
口①④口 |③-④-|
③③口口
口口口口

口口口口
口⑧口口
口口⑦口 |⑤-⑥-|
⑤⑥⑤⑤ |⑦-⑧-|
49
①口①口 |①-②-|
口口③口 |③-④-|
②②口口
口口④④

口⑧⑦⑥
⑤口口口
口口口⑥ |⑤-⑥-|
⑤⑦口口 |⑦-⑧-|
50
①口口口 |①-②-|
口①⑥② |--③-|
口⑤①⑤ |--④-|
④口口③ |⑤-⑥-|
51
①③①③ |①---|
口①口④ |②-③-|
①⑤④⑤ |--④-|
⑥④②⑥ |⑤-⑥-|
52
⑥⑤①口 |--①-|
⑤①口② |--②-|
①口③口 |③-④-|
口④口口 |⑤-⑥-|
53
口口口① |①---|
口⑥①口 |②-③-|
⑤①⑤口 |--④-|
②口③④ |⑤-⑥-|
54
口①口① |--①-|
口口①③ |②---|
口口③① |--③-|
②④⑤口 |④-⑤-|
55
口④③口 |①---|
口③⑤口 |②-③-|
②①口口 |--④-|
口口口口 |--⑤-|
56
口口口口 |--①-|
②口口口 |②---|
口①④口 |--③-|
口口②③ |-④--|
57
口口口口 |①---|
口①口口 |----|
口口口口
口口口口

口口⑤⑤
口④③②
②②口口 |②-③-|
口口③口 |④-⑤-|
58
口口口口 |①-②-|
①口口④ |③-④-|
④③②①
①口口④

口口口⑦
⑦口口口
口口口⑦ |--⑤-|
口⑤⑥口 |⑥-⑦-|
59
③口口口 |----|
口①②④ |①-②-|
③口口口 |--③-|
口口口口 |--④-|
60
口③口口 |①---|
②①口④ |②-③-|
⑥③⑥口 |--④-|
口⑤口口 |⑤-⑥-|
61
①③⑤口 |①-②-|
口②④⑥ |③-④-|
口口口① |⑤-⑥-|
口口口口
62
口口口① |①-②-|
口口口口 |③-④-|
①③⑤口 |⑤-⑥-|
口②④⑥
63
口②④⑥ |①-②-|
①③⑤口 |③-④-|
口口口① |⑤-⑥-|
口口口口
64
口口口口 |①-②-|
口口口① |③-④-|
口②④⑥ |⑤-⑥-|
①③⑤口
65
①③⑤口 |①-②-|
口②④⑥ |③-④-|
口口口口 |⑤-⑥-|
口口口①
66
口口口① |①-②-|
口口口口 |③-④-|
①③⑤口 |⑤-⑥-|
口②④⑥
67
①①口口 |①---|
①②②口 |②---|
口②③③ |③---|
口口③口
68
口口口口 |①---|
口④④口 |②-③-|
②②⑤口 |④-⑤-|
①③口①
69
②口①① |①---|
③口口② |②-③-④-|
④口口口 |⑤---|
⑤口口口
70
口①口口 |-①--|
口口口口 |----|
③口口② |②---|
口口口口 |-③--|
71
口口口口 |----|
口口①口 |①---|
口口口口 |-②--|
口口②口 |----|


不確定度: 0

最終更新:2013年03月29日 20:40