SILVER☆DREAM
jun

EXTREME

Level: 9
BPM: 192
Notes: 616

1
口口口口 |----|
口口口口 |----|
口口口口 |----|
口口口口 |----|
2
口口口口 |----|
口口口口 |----|
口口口口 |----|
口口口口 |----|
3
⑤②口③ |①---|
口⑤口口 |②---|
口①①口 |③-④-|
④口②口 |--⑤-|
4
口口口③ |--①-|
①口口口 |--②-|
②①口口 |--③-|
④②口⑤ |④-⑤-|
5
⑤②口③ |①---|
口⑤口口 |②---|
口①①口 |③-④-|
④口②口 |--⑤-|
6
口口口⑤ |--①-|
①口口口 |--②-|
②①口口 |--③-|
④②口③ |④-⑤-|
7
③口②口 |①---|
口⑤口口 |②---|
⑤①①口 |③-④-|
口②口④ |--⑤-|
8
⑤口口口 |--①-|
口口①② |--②-|
口①②④ |--③-|
③口口口 |④-⑤-|
9
⑤②②口 |①---|
③①①③ |②---|
④口口④ |③-④-|
口口口⑤ |--⑤-|
10
口④口① |--①-|
⑤口口口 |--②-|
口口⑥③ |③-④-|
①口②口 |⑤-⑥-|
11
口口口② |①-②-|
口⑦⑦③ |③-④-|
口①口④ |⑤---|
口⑥⑥⑤ |⑥-⑦-|
12
①口口口 |--①-|
②口口口 |②-③-|
③⑤⑤口 |④---|
④口口口 |⑤---|
13
①③口口 |--①-|
口⑤⑥口 |②-③-|
口⑥⑤口 |④---|
口口④② |⑤-⑥-|
14
口②口口 |--①-|
口④口③ |--②-|
①口⑤① |③-④-|
口口口⑥ |⑤-⑥-|
15
口口口① |--①-|
②⑥⑥口 |②-③-|
口口口③ |④---|
④⑤⑤口 |⑤-⑥-|
16
⑤②③⑤ |--①-|
②口口③ |--②-|
④①①④ |③---|
口口口口 |④-⑤-|
17
④口口④ |①---|
口①①口 |②-③-|
口②②口 |----|
③口口③ |④---|
18
④④④④ |①---|
口口口口 |②-③-|
①②②① |--④-|
口③③口 |----|
19
口口⑥⑥ |--①-|
口口④口 |②-③-|
口⑤口② |④---|
口口③① |⑤-⑥-|
20
①口口口 |--①-|
③口口② |②-③-|
口口口④ |④---|
⑤⑤口口 |⑤---|
21
④口口口 |--①-|
口②⑤口 |②-③-|
③①口口 |④---|
⑥⑥口口 |⑤-⑥-|
22
口①②口 |--①-|
③①④口 |--②-|
口⑤口口 |③-④-|
⑥口口口 |⑤-⑥-|
23
②口口① |--①-|
口⑥⑤口 |②-③-|
④口口③ |④---|
口⑥⑤口 |⑤-⑥-|
24
④②②④ |--①-|
⑤口口⑤ |--②-|
口①①口 |③---|
③口口③ |④-⑤-|
25
⑤③③④ |①---|
⑤口口④ |②-③-|
①口口① |----|
口②②口 |④-⑤-|
26
口口口口 |①---|
口②②口 |--②-|
口①①口 |③---|
③口口③ |----|
27
③口口③ |①---|
口口口口 |②-③-|
①②②①
口口口口

口口④口
⑤口口口
口口口⑥ |--④-|
口口口口 |⑤-⑥-|
28
④④口② |①---|
口口口② |②-③-|
③口口口 |--④-|
③①⑤⑤ |--⑤-|
29
口④口③ |----|
口口⑤② |①-②-|
口⑥口① |③-④-|
口口口口 |⑤-⑥-|
30
口口②③ |①---|
口口口口 |②-③-|
口口②③
口①①口

口口口口
口④口④
口口口口 |--④-|
⑤口⑤口 |--⑤-|
31
口口①口 |--①-|
口⑥③口 |②-③-|
口②⑤口 |④---|
口④口口 |⑤-⑥-|
32
⑤口口① |①-②-|
口⑧④口 |③-④-|
⑥口口② |⑤-⑥-|
③口口⑦ |⑦-⑧-|
33
口⑤①口 |①-②-|
⑧口口④ |③-④-|
口⑥②口 |⑤-⑥-|
口③⑦口 |⑦-⑧-|
34
③③①① |①---|
口口④口 |②-③-|
口④②口 |----|
口口口口 |④---|
35
⑧⑥④② |①-②-|
口口口口 |③-④-|
口口口口 |⑤-⑥-|
①③⑤⑦ |⑦-⑧-|
36
⑤③口⑤ |①---|
口①②口 |②---|
口②①口 |③---|
④口③④ |④-⑤-|
37
口②③口 |--①-|
①口口① |--②-|
④③②口 |③---|
口④口口 |--④-|
38
③口口① |①---|
口④①② |②---|
⑤口②口 |③-④-|
口⑥口口 |⑤-⑥-|
39
④③③④ |--①-|
⑤口②⑤ |②-③-|
⑥①口⑥ |--④-|
口口口口 |⑤-⑥-|
40
口②②口 |①---|
口口口口 |②---|
口口口口
口①①口

口口口口
口口③口
口④口口 |③-④-|
口口⑤⑤ |--⑤-|
41
口口③③ |--①-|
口②口口 |②-③-|
①口口口 |----|
④口口④ |--④-|
42
口③③口 |①---|
④口口④ |②---|
①⑤⑤① |③-④-|
⑥②②⑥ |⑤-⑥-|
43
①⑤⑤① |--①-|
⑤②②⑤ |②-③-|
③⑤⑤③ |④---|
口④④口 |⑤---|
44
口口⑤② |①---|
口⑤口口 |②---|
口口口③ |③-④-|
①口④① |--⑤-|
45
口④口③ |--①-|
口口①⑤ |--②-|
口①②口 |--③-|
口②口口 |④-⑤-|
46
②⑤口口 |①---|
口口⑤口 |②---|
③口口口 |③-④-|
①④口① |--⑤-|
47
口口口口 |--①-|
口①⑤口 |--②-|
④②①③ |--③-|
口口②口 |④-⑤-|
48
①③口口 |①-②-|
口⑧口⑦ |③-④-|
口⑥口⑤ |⑤-⑥-|
②④口口 |⑦-⑧-|
49
口口④② |①-②-|
⑤口⑥口 |③-④-|
⑦口⑧口 |⑤-⑥-|
口口③① |⑦-⑧-|
50
⑤②②⑤ |①---|
口④③口 |②---|
口口口口 |③-④-|
①口口① |--⑤-|
51
口口口口 |--①-|
口口⑤口 |--②-|
②①①② |--③-|
④②②③ |④-⑤-|
52
口①①口 |①---|
①口口① |----|
口①①口 |----|
口口口口 |----|
53
口②①口 |--①-|
②③④① |--②-|
①⑤口② |--③-|
口①②口 |④-⑤-|
54
口口②③ |①---|
口口口口 |②-③-|
口口②③
①口口①

口口口口
口④口④
口口口口 |--④-|
⑤口⑤口 |--⑤-|
55
口口①口 |--①-|
口⑥③口 |②-③-|
口②⑤口 |④---|
口④口口 |⑤-⑥-|
56
⑤口口① |①-②-|
口⑧④口 |③-④-|
⑥口口② |⑤-⑥-|
③口口⑦ |⑦-⑧-|
57
口⑤①口 |①-②-|
⑧口口④ |③-④-|
口⑥②口 |⑤-⑥-|
口③⑦口 |⑦-⑧-|
58
③③①① |①---|
口口④口 |②-③-|
口④②口 |----|
口口口口 |④---|
59
⑧⑥④② |①-②-|
口口口口 |③-④-|
口口口口 |⑤-⑥-|
①③⑤⑦ |⑦-⑧-|
60
⑤③口⑤ |①---|
口①②口 |②---|
口②①口 |③---|
④口③④ |④-⑤-|
61
口②③口 |--①-|
①口口① |--②-|
④③②口 |③---|
口④口口 |--④-|
62
③口口① |①---|
口④①② |②---|
⑤口②口 |③-④-|
口⑥口口 |⑤-⑥-|
63
⑥③③⑥ |--①-|
⑤口②⑤ |②-③-|
④①口④ |--④-|
口口口口 |⑤-⑥-|
64
口②②口 |①---|
口口口口 |②---|
口⑤④口 |③-④-|
③①①⑥ |⑤-⑥-|
65
④④口口 |--①-|
口②口口 |②-③-|
①口口口 |④---|
⑤口③⑤ |--⑤-|
66
口③③口 |①---|
④口口④ |②---|
①⑤⑤① |③-④-|
⑥②②⑥ |⑤-⑥-|
67
①⑤⑤① |--①-|
⑤②②⑤ |②-③-|
③⑤⑤③ |④---|
口④④口 |⑤---|
68
④⑤口③ |①---|
口②②口 |②---|
④口口③ |③-④-|
①⑤口① |--⑤-|
69
④口①② |--①-|
⑤口口口 |--②-|
③口口口 |--③-|
口口①② |④-⑤-|
70
口口⑤口 |①---|
口②①口 |②---|
④①②③ |③-④-|
③口⑤④ |--⑤-|
71
②①口口 |--①-|
口⑤口口 |--②-|
口③④口 |--③-|
②①口口 |④-⑤-|
72
口⑥口⑤ |①-②-|
口口④② |③-④-|
口⑧口⑦ |⑤-⑥-|
口口③① |⑦-⑧-|
73
⑤口⑥口 |①-②-|
②④口口 |③-④-|
⑦口⑧口 |⑤-⑥-|
①③口口 |⑦-⑧-|
74
④⑤⑤④ |①-②-|
②口口② |③---|
⑥口口⑥ |④-⑤-|
①③③① |⑥---|
75
⑥⑤⑤⑥ |①-②-|
②⑥⑥② |③-④-|
⑥③③⑥ |⑤---|
①④④① |⑥---|

不確定度: 0

最終更新:2014年08月01日 23:04