LANA - キロクノカケラ -
TOMOSUKE×Jazzin'park

EXTREME

Level: 8
BPM: 84-168
Notes: 493

實際BPM: 168
1
口口口口 |----|
口口口口 |----|
口口口口 |----|
口口口口 |----|
2
口口口口 |----|
口口口口 |----|
口口口口 |----|
口口口口 |----|
3
⑤口口⑤ |①-②-|
①口口口 |③-④-|
口口口② |--⑤-|
口③口④ |----|
4
口①④口 |--①-|
①⑤②④ |②-③-|
⑤③⑥② |④-⑤-|
③⑦口⑥ |⑥-⑦-|
5
口口口口 |----|
口口口口 |----|
口口口口 |----|
口口口口 |----|
6
①口口① |①---|
口口口口 |----|
②口口② |②---|
口口口口 |----|
7
口口口④ |①-②-|
③口口口 |③-④-|
口口②口 |--⑤-|
⑤①口⑤ |----|
8
③口口口 |--①-|
口③口② |②-③-|
①口②口
口①口口

口口口④
⑤口④口
⑦⑤口⑥ |④-⑤-|
口⑦⑥口 |⑥-⑦-|
9
口口口口 |----|
口口口口 |----|
口口口口 |----|
口口口口 |----|
10
①口口① |①---|
口口口口 |----|
②口④② |②---|
③口口口 |③-④-|
11
①①口口 |①---|
口口口② |②-③-|
口口口口 |----|
口③口口 |----|
12
口口口② |----|
口口口口 |----|
口口口口 |----|
①口口口 |①-②-|
13
口口口口 |①---|
①①口② |②-③-|
③口口④ |--④-|
口⑤口口 |⑤---|
14
口口口口 |----|
口口口口 |----|
②口口口 |----|
口口口① |①-②-|
15
口口①① |①---|
②口口口 |②-③-|
口口口③ |----|
口口口口 |----|
16
口口口口 |----|
口口口口 |----|
口口口口 |----|
口①①口 |①---|
17
①口口① |①---|
口口②口 |--②-|
口②口口
口口口口

④口口④
口③口口
口口③口 |--③-|
口口口口 |--④-|
18
口口口口 |--①-|
口口口口 |----|
口口口口 |----|
①口口① |----|
19
①口口② |①---|
⑤①②⑥ |②---|
③⑤⑥④ |③-④-|
口③④口 |⑤-⑥-|
20
口口①② |--①-|
口口口口 |②---|
④③口④ |--③-|
口口口口 |--④-|
21
口①①口 |①---|
③②②口 |--②-|
口口口④ |--③-|
口⑤口口 |④-⑤-|
22
口口②① |--①-|
口口口口 |----|
③口口口 |----|
口口口口 |②-③-|
23
口③口口 |①---|
口口口口 |--②-|
口②④口 |----|
口口①口 |③-④-|
24
口口口口 |①---|
口口口口 |--②-|
口口口②
口①口口

口口口口
口口口口
③口口口 |----|
口③口口 |--③-|
25
②口③③ |①-②-|
口②口① |--③-|
④④①口 |--④-|
口口⑤⑤ |--⑤-|
26
口口口口 |--①-|
口口口口 |②---|
口口口② |----|
①口口口 |----|
27
②口口② |①---|
口②②口 |--②-|
口①①口 |----|
口①①③ |--③-|
28
口口口口 |----|
口口口口 |①---|
口口口口 |----|
①口口口 |----|
29
口①①口 |①---|
①口口① |--②-|
口②②口 |----|
③②②口 |--③-|
30
口口口口 |----|
口口口口 |①---|
口口口口 |----|
口口口① |----|
31
口②②口 |①---|
口②②口 |--②-|
①口口① |----|
口①①③ |--③-|
32
口口口口 |----|
口口口口 |①---|
口口口口 |----|
①口口口 |----|
33
①口口① |①---|
①口口① |--②-|
口②②口 |----|
②③口② |--③-|
34
口口口口 |----|
口口③口 |①---|
②口口口 |----|
口口①口 |②-③-|
35
①口口② |①---|
口口口口 |②-③-|
口口口口 |----|
④③口口 |--④-|
36
③口口口 |----|
口口口口 |①---|
口口口口 |----|
口口②① |②-③-|
37
口口口口 |①---|
②口①口 |②-③-|
④口口③ |--④-|
⑥口⑤口 |⑤-⑥-|
38
口口口口 |----|
③口口口 |①---|
口口②口 |----|
口口口① |②-③-|
39
②口口① |①---|
口口口口 |②-③-|
口口口③ |----|
④口口口 |--④-|
40
口口口口 |----|
口口口口 |①---|
口口口口 |----|
口②②① |②---|
41
①口④① |①---|
口③②口 |--②-|
口②③口 |--③-|
口④口口 |--④-|
42
口口口口 |--①-|
①口口口 |----|
口口口① |----|
口口口口 |----|
43
②口口① |①---|
①口口② |②---|
口③④口 |③-④-|
口⑤⑤口 |--⑤-|
44
口口口口 |----|
口口口口 |----|
口口口口 |----|
口①①口 |--①-|
45
①口口① |①---|
③②②口 |--②-|
口口口④ |--③-|
口⑤口口 |④-⑤-|
46
口口口口 |--①-|
口①①③ |----|
②口③口 |----|
口②口口 |②-③-|
47
①②②口 |①---|
④①口口 |--②-|
口④口③ |----|
口口③口 |③-④-|
48
口口口① |①---|
口口①口 |--②-|
口口口口 |----|
②口口② |----|
49
口①②口 |①-②-|
④口口③ |--③-|
③⑤⑤④ |--④-|
口口口口 |--⑤-|
50
①口口② |--①-|
口①②口 |②---|
口口口口 |----|
口口口口 |----|
51
①⑤⑤① |①---|
口④③口 |②---|
口③④口 |③-④-|
②口口② |--⑤-|
52
口口口口 |--①-|
③口口② |--②-|
②口口③ |--③-|
口①①口 |----|
53
②口⑤① |①---|
口③③口 |②---|
口④④口 |③-④-|
①⑤口② |--⑤-|
54
口①④口 |--①-|
②口口② |--②-|
⑤③口口 |--③-|
口口①口 |④-⑤-|
55
①⑤⑤① |①---|
口④③口 |②---|
口③④口 |③-④-|
②口口② |--⑤-|
56
口口口口 |--①-|
③口口② |--②-|
②口口③ |--③-|
口①①口 |----|
57
②口⑤① |①---|
口③③口 |②---|
口④④口 |③-④-|
①⑤口② |--⑤-|
58
口①口口 |--①-|
口⑤口口 |--②-|
口③④口 |--③-|
②口①② |④-⑤-|
59
口口①① |①---|
②口口口 |--②-|
口②口口
口口口口

口口口⑤
口口口③
④口③口 |③-④-|
⑤④口口 |--⑤-|
60
②口口口 |--①-|
①口口口 |--②-|
口口口①
口口口②

口口口口
③口口口
③口口口 |----|
口口口口 |--③-|
61
口口②② |①---|
口④④① |--②-|
口⑤⑤① |③-④-|
③③口口 |--⑤-|
62
①口③① |--①-|
口④口③ |--②-|
④口⑤口 |--③-|
口②②⑤ |④-⑤-|
63
口①⑧口 |①-②-|
⑤口④口 |③-④-|
口⑦口② |⑤-⑥-|
③口⑥口 |⑦-⑧-|
64
口口口口 |--①-|
口①口口 |②---|
口口②口 |----|
口口口口 |----|
65
③②①③ |①---|
②口口① |--②-|
①口口② |----|
口①②口 |--③-|
66
口口口口 |--①-|
③口口③ |②-③-|
①③③② |----|
口①②口 |----|
67
①口口① |①---|
②②③③ |②---|
口口④④ |③---|
④口口② |④---|
68
口①①口 |①---|
口③③口 |②---|
口口④④ |③---|
④口口② |④---|
69
①口口① |①---|
口口口口 |②---|
③口口口 |----|
③口口② |③---|
70
口口④④ |①---|
口①①口 |②---|
③③口口 |③---|
④口口② |④---|
71
口口④④ |①---|
口①①口 |②---|
口③③口 |③---|
④口口② |④---|
72
②②口口 |①---|
③③①① |②---|
口口④④ |③---|
④口口② |④---|
73
口口③③ |①---|
口口口口 |②---|
口口口口 |----|
③①①② |③---|
74
口口口口 |①---|
①①口口 |②---|
口口口口
口口口②

③口④③
口⑤口口
口口口口 |③---|
口口口口 |④-⑤-|
75
口口口③ |①---|
④口口口 |②---|
口口①⑤ |③-④-|
口⑥口② |⑤-⑥-|
76
口口③③ |①---|
口口口口 |②---|
口口①口 |----|
③口口② |③---|
77
②②口口 |①---|
口口口口 |②---|
口口①①
口口口②

口口口口
口口④口
③③④口 |③---|
④口口口 |④---|
78
口①口口 |①---|
口①④③ |②---|
口口④③ |③---|
④口口② |④---|
79
口口口③ |①---|
口①口③ |②---|
口①口口 |----|
③口口② |③---|
80
②口③③ |①---|
②口口口 |②---|
口①①口 |----|
③口口② |③---|
81
口口口口 |①---|
口③③口 |②---|
口①①口 |③---|
④口口② |④---|
82
①口口① |①---|
口口口口 |----|
口①①口 |----|
口口口口 |----|

不確定度: 0

最終更新:2014年08月01日 00:35