愛する覚悟
シシド・カフカ

BASIC

Level: 2
BPM: 103-206
Notes: 138

BPM: 103
1
口口口口 |----|
口口口口 |----|
口口口口 |----|
口口口口 |----|
2
口口口口 |----|
口口口口 |①---|
口①口口 |----|
口口口口 |----|
3
口口口口 |①---|
口口口口 |----|
口口①口 |----|
口口口口

BPM: 104
口口口口
口口②口
口口口口
口口口口 |②---|
4
口口口口 |----|
口①①口 |----|
口口口口 |①---|
口口口口 |----|
5
口口口口 |----|
口口口口
口口口口
口口口口

BPM: 102
口口口口
口口口口 |----|
口口口口 |----|
口口口口 |----|

BPM: 206.2
6
口口①② |①---|
口口口口 |----|
口口口口 |②---|
口口口口 |----|
7
口口口口 |①---|
口口②① |----|
口口口口 |②---|
口口口口 |----|
8
口口口口 |①---|
②①口口 |----|
口口口口 |②---|
口口口口 |----|
9
①②口口 |①---|
口口口口 |----|
口口口口 |②---|
口口口口 |----|
10
口口①② |①---|
口口口口 |----|
口口口口 |②---|
口口口口 |----|
11
口口口口 |①---|
口口②① |----|
口口口口 |②---|
口口口口 |----|
12
口口口口 |①---|
口口口口 |----|
口口①口 |②---|
口口②口 |----|
13
口口口口 |①---|
口口口口 |----|
口②口口 |②---|
口①口口 |----|
14
口口口口 |①---|
②①口口 |----|
口口口口 |②---|
口口口口 |----|
15
①②口口 |①---|
口口口口 |----|
口口口口 |②---|
口口口口 |----|
16
口口口口 |①---|
口①口口 |----|
口口口口 |----|
口口口口 |----|
17
口口口口 |①---|
口口口口 |----|
口①口口 |----|
口口口口 |----|
18
口口口口 |①---|
口口口口 |----|
口口①口 |----|
口口口口 |----|
19
口口口口 |①---|
口口①口 |----|
口口口口 |----|
口口口口 |----|
20
口口口口 |①---|
口①口口 |----|
口口口口 |----|
口口口口 |----|
21
口口口口 |①---|
口口口口 |----|
口①口口 |----|
口口口口 |----|
22
口口口口 |①---|
口口口口 |----|
口口①口 |----|
口口口口 |----|
23
口口口口 |①---|
口口①口 |----|
口②口口 |②---|
口口口口 |----|
24
口②口口 |①---|
口①口口 |----|
口口口口 |②---|
口口口口 |----|
25
口口口口 |----|
口口口口 |----|
口口口口 |----|
口口口口 |----|
26
口口口口 |①---|
口①②口 |----|
口口口口 |②---|
口口口口 |----|
27
口口口口 |①---|
口口口① |----|
口口②口 |②---|
口口口口 |----|
28
口口②口 |①---|
口口①口 |----|
口口口口 |②---|
口口口口 |----|
29
口口口口 |----|
口口口口 |----|
口口口口 |----|
口口口口 |----|
30
口口口口 |①---|
口②①口 |----|
口口口口 |②---|
口口口口 |----|
31
口口口口 |①---|
①口口口 |----|
口②口口 |②---|
口口口口 |----|
32
口②口口 |①---|
口①口口 |----|
口口口口 |②---|
口口口口 |----|
33
口口口口 |----|
口口口口 |----|
口口口口 |----|
口口口口 |----|
34
口口口口 |①---|
口①②口 |----|
口口口口 |②---|
口口口口 |----|
35
口口口口 |①---|
口口口① |----|
口口口口 |----|
口口口口 |----|
36
口口②① |①---|
口口口口 |----|
口口口口 |②---|
口口口口 |----|
37
口①口口 |①---|
口口口口 |----|
口口口口 |----|
口口口口 |----|
38
口口口口 |①---|
①②口口 |----|
口口口口 |②---|
口口口口 |----|
39
口口口口 |①---|
口口①口 |----|
口口口口 |----|
口口口口 |----|
40
口①①口 |①---|
口口口口 |----|
口口口口 |----|
口口口口 |----|
41
口口口口 |----|
口口口① |----|
口口口口 |①---|
口口口口 |----|
42
口②①口 |①---|
口口口口 |----|
口口口口 |②---|
口口口口 |----|
43
口口口口 |①---|
①口口口 |----|
口口口口 |----|
口口口口 |----|
44
口口口口 |①---|
口①口口 |----|
口口口口 |----|
口口口口 |----|
45
口口口口 |①---|
口口①口 |----|
口口口口 |----|
口口口口 |----|
46
口口口口 |①---|
口口②口 |----|
口①口口 |②---|
口口口口 |----|
47
口①①口 |①---|
口口口口 |----|
口口口口 |----|
口口口口 |----|
48
①口口① |①---|
②口口② |----|
口口口口 |②---|
口口口口 |----|
49
口口②口 |①---|
口口①口 |----|
口口口口 |②---|
口口口口 |----|
50
口②口口 |①---|
口①口口 |----|
口口口口 |②---|
口口口口 |----|
51
口口口口 |①---|
口①①口 |----|
口口口口 |----|
口口口口 |----|
52
①口口① |①---|
②口口② |----|
口口口口 |②---|
口口口口 |----|
53
口口②口 |①---|
口口①口 |----|
口口口口 |②---|
口口口口 |----|
54
口口口口 |①---|
口①①口 |----|
口②②口 |②---|
口口口口 |----|
55
口②②口 |①---|
口①①口 |----|
口口口口 |②---|
口口口口 |----|
56
①口口① |①---|
②口口② |----|
口口口口 |②---|
口口口口 |----|
57
口②口口 |①---|
口①口口 |----|
口口口口 |②---|
口口口口 |----|
58
口口②口 |①---|
口口①口 |----|
口口口口 |②---|
口口口口 |----|
59
口口口口 |①---|
口①①口 |----|
口口口口 |----|
口口口口 |----|
60
①口口① |①---|
②口口② |----|
口口口口 |②---|
口口口口 |----|
61
口②口口 |①---|
口①口口 |----|
口口口口 |②---|
口口口口 |----|
62
口口②口 |①---|
口口①口 |----|
口口口口 |②---|
口口口口 |----|
63
口口口口 |①---|
口①口口 |----|
口口②口 |②---|
口口口口 |----|
64
口口口口 |①---|
口①①口 |----|
口口口口 |----|
口口口口 |----|
65
口口口口 |①---|
口①①口 |----|
口①①口 |----|
口口口口 |----|

BPM: 205.5
66
口口口口 |①---|
①口口口 |----|
口②口口 |②---|
口口口口 |----|
67
口口口口 |①---|
口口①口 |----|
口口口② |②---|
口口口口 |----|
68
口口口口 |①---|
口口口① |----|
口口②口 |②---|
口口口口 |----|
69
口口口口 |①---|
口①口口 |----|
②口口口 |②---|
口口口口 |----|
70
口口口口 |①---|
①口口口 |----|
口②口口 |②---|
口口口口 |----|
71
口口口口 |①---|
口口①口 |----|
口口口② |②---|
口口口口 |----|
72
口口口口 |①---|
口口口① |----|
口口②口 |②---|
口口口口 |----|
73
②②②② |①---|
口①口口 |----|
口口口口 |----|
口口口口 |--②-|


不确定度: 0

最終更新:2012年12月04日 13:40