愛する覚悟
シシド・カフカ

ADVANCED

Level: 5
BPM: 103-206
Notes: 264

BPM: 103
1
口口口口 |----|
口口口口 |----|
口口口口 |----|
口口口口 |----|
2
口②②口 |----|
口口口口 |①--②|
口①①口 |----|
口口口口 |----|
3
口②②口 |①--②|
口口口口 |----|
口①①口 |----|
口口口口

BPM: 104
口④④口
口口口口
口③③口
口口口口 |③--④|
4
口口口口 |----|
口②②口 |----|
口①①口 |①---|
口口口口 |--②-|
5
口口口口 |----|
口口口口
口口口口
口口口口

BPM: 102
②①①②
口口口口 |①-②-|
口口口口 |----|
口口口口 |----|

BPM: 206.2
6
②口口① |①---|
口口口口 |----|
口口口口 |②---|
口口口口 |----|
7
③口口③ |①---|
口口口口 |②---|
②口口② |----|
口①①口 |③---|
8
口①②口 |----|
口口口口 |①---|
口口口口 |②---|
口口口口 |----|
9
口口口口 |①---|
口②②口 |②---|
①口口① |----|
口口口口 |----|
10
②口口① |①---|
口口口口 |----|
口口口口 |②---|
口口口口 |----|
11
③口口③ |①---|
口口口口 |②---|
②口口② |----|
口①①口 |③---|
12
口②③口 |①---|
口①④口 |②---|
口口口口 |③---|
口口口口 |④---|
13
口口口口 |①---|
口口口口 |②---③-|
口①口② |----|
口口口③ |----|
14
口③②口 |①---|
口④①口 |②---|
口口口口 |③---|
口口口口 |④---|
15
④口口③ |①-②-|
口口口口 |----③-|
口②口口 |----④-|
口口①口 |----|
16
口口口口 |----|
②口口② |①---|
口口口口 |----|
①口口① |②---|
17
口口口口 |----|
②口口② |①---|
口口口口 |----|
①口口① |②---|
18
口口口口 |----|
口②②口 |①---|
口口口口 |----|
口①①口 |②---|
19
口口口口 |----|
口②②口 |①---|
口口口口 |----|
口①①口 |②---|
20
口口口口 |----|
②口口② |①---|
口口口口 |----|
①口口① |②---|
21
口口口口 |----|
②口口② |①---|
口口口口 |----|
①口口① |②---|
22
口口口口 |----|
口②②口 |①---|
口口口口 |----|
口①①口 |②---|
23
③口口口 |----|
①口④② |①---|
口口口口 |②---|
口口口口 |③---④-|
24
口口口② |----①-|
①口口口 |----②-|
口口口口 |----|
口口口口 |----|
25
口口口口 |----|
口口口口 |----|
口口口口 |----|
口口口口 |----|
26
口口③口 |----|
口①口② |①---|
口④口口 |②---③-|
口口口口 |----④-|
27
③口口口 |----|
①口④② |①---|
口口口口 |②---|
口口口口 |③---④-|
28
口口口② |----①-|
①口口口 |----②-|
口口口口 |----|
口口口口 |----|
29
口口口口 |----|
口口口口 |----|
口口口口 |----|
口口口口 |----|
30
口口③口 |----|
口①口② |①---|
口④口口 |②---③-|
口口口口 |----④-|
31
③口口口 |----|
①口④② |①---|
口口口口 |②---|
口口口口 |③---④-|
32
口口口② |----①-|
①口口口 |----②-|
口口口口 |----|
口口口口 |----|
33
口口口口 |----|
口口口口 |----|
口口口口 |----|
口口口口 |----|
34
口口③口 |----|
口①口② |①---|
口④口口 |②---③-|
口口口口 |----④-|
35
口口口口 |----|
口口口口 |----|
口口口口 |----|
口口口口 |----|
36
口口口口 |①---②-|
①③②口 |----③-|
口口口④ |----④-|
口⑤⑤口 |----⑤-|
37
口口口口 |----|
口口口口 |----|
口口口口 |----|
口口口口 |----|
38
口口口口 |①---②-|
口②③① |----③-|
④口口口 |----④-|
口⑤⑤口 |----⑤-|
39
口口②口 |----|
口①口口 |----|
口口口口 |①---|
口口口口 |②---|
40
口口口口 |①---|
口口①口 |----|
口口口口 |----|
口口口口 |----|
41
口口口口 |----|
①口口口 |----|
口②口口 |①---|
口口口口 |②---|
42
口口口② |①---|
口口①口 |②---|
口口口口 |----|
口口口③ |③---|
43
口口口口 |----|
口口口口 |----|
口口口口 |----|
口口口口 |----|
44
口口口口 |----|
口口口口 |----|
口口口口 |----|
口口口口 |----|
45
口口口口 |----|
口①①口 |----|
口②②口 |①---|
口口口口 |②---|
46
口②②口 |①---|
①口口① |②---|
口口口口 |----|
③口口③ |③---|
47
口口口口 |----|
口①①口 |----|
口①①口 |①---|
口口口口 |----|
48
②①②① |-①----|
口口口口 |----|
口口口口 |-②----|
口口口口 |----|
49
③口口③ |-①----|
口口口口 |-②----|
②口口② |----|
口①①口 |③---|
50
口①②口 |----|
①口口② |①---|
口口口口 |②---|
口口口口 |----|
51
口口口口 |①---|
口②②口 |②---|
①口口① |----|
口口口口 |----|
52
②①②① |①---|
口口口口 |----|
口口口口 |②---|
口口口口 |----|
53
③口口③ |①---|
口口口口 |②---|
②口口② |----|
口①①口 |③---|
54
口②③口 |①---|
口①④口 |②---|
口口口口 |③---|
口口口口 |④---|
55
口口口口 |①---|
口口口口 |②---③-|
口①口② |----|
口口口③ |----|
56
②①②① |①---|
口口口口 |----|
口口口口 |②---|
口口口口 |----|
57
③口口③ |①---|
口口口口 |②---|
②口口② |----|
口①①口 |③---|
58
口①②口 |----|
①口口② |①---|
口口口口 |②---|
口口口口 |----|
59
口口口口 |①---|
口②②口 |②---|
①口口① |----|
口口口口 |----|
60
口①②口 |①---|
①口口② |----|
口口口口 |②---|
口口口口 |----|
61
③口口③ |①---|
口口口口 |②---|
②口口② |----|
口①①口 |③---|
62
口②③口 |①---|
口①④口 |②---|
口口口口 |③---|
口口口口 |④---|
63
口口口口 |①---|
口口口口 |②---③-|
②①口② |----|
③口口③ |----|
64
口③②口 |①---|
口④①口 |②---|
口口口口 |③---|
口口口口 |④---|
65
④③③④ |①-②-|
口口口口 |----③-|
口②口口 |----④-|
口口①口 |----|

BPM: 205.5
66
口口口口 |①---|
口口口口 |②---|
口口口口 |③---|
①②③口 |----|
67
口口口口 |①---|
①口②③ |--②-|
口口口口 |--③-|
口口口口 |----|
68
口口口口 |①---|
口口口口 |②---|
口口口口 |③---|
口③②① |----|
69
口口口口 |①---|
③②口① |--②-|
口口口口 |--③-|
口口口口 |----|
70
口口口口 |①---|
口口口口 |②---|
口口口口 |③---|
①②③口 |----|
71
口口口口 |①---|
①口②③ |--②-|
口口口口 |--③-|
口口口口 |----|
72
口口口口 |①---|
④口口④ |②---|
口口口口 |③---|
口③②① |--④-|
73
口口口口 |----|
口④④口 |①---|
①①②② |②---|
口③③口 |③-④-|
74
①口口① |----①-|
口口口口 |----|
口口口口 |----|
口口口口 |----|


不确定度: 0

最終更新:2012年12月04日 13:39