愛する覚悟
シシド・カフカ

EXTREME

Level: 8
BPM: 103-206
Notes: 555

BPM: 103
1
口口口口 |----|
口口口口 |----|
口口口口 |----|
口口口口 |----|
2
口口②② |----|
口③④口 |①--②|
口⑤⑥口 |-③④⑤|
①⑦⑧① |⑥⑦⑧-|
3
②②口口 |①--②|
口③④口 |-③④⑤|
口⑤⑥口 |⑥⑦⑧-|
①⑦⑧①

BPM: 104
口口⑩⑩
口口口口
口口口口
⑨口口⑨ |⑨--⑩|
4
口口口口 |-①②③|
口①②口 |④⑤⑥-|
口③④口
口⑤⑥口

口口⑨⑩
口⑧⑬口
⑦口⑪⑫ |⑦⑧⑨⑩|
口口口口 |-⑪⑫⑬|
5
②①口口 |①②-③|
口口口口
③口口口
口口口口

BPM: 102
口口口口
口④口⑥ |④⑤⑥-|
口口⑤口 |----|
口口口口 |----|

BPM: 206.2
6
①①①① |①---|
口口口口 |----|
②②②② |②---|
口③③口 |----③-|
7
③④③④ |①-②-|
①②①② |③-④-|
口⑤⑤口 |----|
口口口口 |⑤---|
8
口口口口 |----|
①①①① |①---|
口③③口 |②---|
②②②② |----③-|
9
①②①② |①-②-|
③④③④ |③-④-|
口口口口 |----|
口口口口 |----|
10
①②①② |①---|
③口③口 |----|
①②①② |②---|
口口口口 |----③-|
11
①⑤①⑤ |①-②-|
口②口② |③-④-|
③口③口 |----|
口④口④ |⑤---|
12
口口口口 |①---|
①口口② |②---|
③①②④ |③---|
口③④口 |④---|
13
①③③② |①---|
④①②⑤ |②---③-|
口④⑤口 |④---|
口口口口 |⑤---|
14
①口口② |①---|
口①②口 |②---|
③口口④ |③---|
口③④口 |④---|
15
③③④④ |①---②-|
②③④② |----③-|
口①①口 |----④-|
口口口口 |----|
16
口口口口 |①---|
口口口④ |②---|
③口口② |③---|
①口口口 |④---|
17
口口口② |①---|
①口③口 |②---③-|
口⑤口口 |----④-|
口④口口 |⑤---|
18
口口口口 |①---|
④口口口 |②---|
②口口③ |③---|
口口口① |④---|
19
②口口口 |①---|
口③口① |②---③-|
口口⑤口 |----④-|
口口④口 |⑤---|
20
口口口口 |①---|
口口口④ |②---|
③口口② |③---|
①口口口 |④---|
21
口口口② |①---|
①口③口 |②---③-|
口⑤口口 |----④-|
口④口口 |⑤---|
22
口口口口 |①---|
④口口口 |②---|
②口口③ |③---|
口口口① |④---|
23
②口口口 |①---|
口③口① |②-③-|
⑥④⑥口 |④---|
口口口⑤ |⑤---⑥-|
24
口②口② |----①-|
①口①口 |----②-|
口口口口 |----|
口口口口 |----|
25
口口口⑤ |①---|
③口④① |②-③-|
口口口口 |----④-|
口②口口 |⑤---|
26
口②②口 |----|
口③④口 |①---|
①口口① |②---③-|
③口口④ |----④-|
27
口口口① |----|
口口口口 |①---|
口⑤②⑤ |②-③-|
④③④口 |④---⑤-|
28
口②口② |----①-|
①口①口 |----②-|
口口口口 |----|
口口口口 |----|
29
口口口⑤ |①---|
③口④① |②-③-|
口口口口 |----④-|
口②口口 |⑤---|
30
口①①口 |----|
②口口③ |①---|
②口口③ |②---③-|
口④④口 |----④-|
31
①口口① |----|
口②口口 |①---|
口④②④ |②---|
③口口③ |③---④-|
32
口②口② |----①-|
①口①口 |----②-|
口口口口 |----|
口口口口 |----|
33
口口口⑤ |①---|
③口④① |②-③-|
口口口口 |----④-|
口②口口 |⑤---|
34
口②②口 |----|
口④③口 |①---|
①口口① |②---③-|
④口口③ |----④-|
35
⑤口口④ |①---|
③口口① |②-③-|
口口口口 |----|
口②口口 |④---⑤-|
36
口口②口 |①-②-|
⑥①口③ |③-④-|
口⑤④口 |⑤-⑥-|
口⑦⑦口 |----⑦-|
37
口口口口 |①---|
口口口口 |--②-|
口④口① |----③-|
②口口③ |----④-|
38
⑥口口⑥ |①-②-|
①⑦⑦③ |③-④-|
⑤口②口 |⑤-⑥-|
口④口口 |----⑦-|
39
口③③口 |----|
口口口口 |①---|
②口口② |②---|
①口口① |③---|
40
口口口口 |①---|
口①①口 |----②-|
口①①口 |----|
②③③② |③---|
41
口①①口 |----|
②口口② |①---|
口口口口 |②---|
口③③口 |③---|
42
口口②口 |①---|
口②口口 |②---|
口①①口 |----|
③口口③ |③---|
43
①口口① |----|
口口口口 |①---|
口口口口 |②---|
口②③口 |③---|
44
③口口③ |①---|
口②②口 |----②-|
①口口① |----|
口口口口 |③---|
45
口口口口 |①---|
①口口① |----|
口③②口 |②---|
③口口② |③---|
46
②③③① |①---|
③②①③ |②---|
口口口口 |----|
口口口口 |③---|
47
口口口口 |①---②-|
口口④口 |③---|
口④口④ |④---|
①口②③ |----|
48
①口口① |-①----|
①口口① |----|
②口口② |-②----|
②③③② |----③-|
49
③④③④ |-①--②-|
①②①② |-③--④-|
口⑤⑤口 |----|
口口口口 |⑤---|
50
口口口口 |----|
口①①口 |①---|
②③③② |②---|
①②②① |----③-|
51
①②①② |①-②-|
③④③④ |③-④-|
口口口口 |----|
口口口口 |----|
52
①②①② |①---|
③口③口 |----|
①②①② |②---|
口口口口 |----③-|
53
①⑤①⑤ |①-②-|
口②口② |③-④-|
③口③口 |----|
口④口④ |⑤---|
54
口口口口 |①---|
①口口② |②---|
③①②④ |③---|
口③④口 |④---|
55
口口口口 |①---|
口③③口 |②-③-|
口①②口 |----|
①口口② |----|
56
①口口① |①---|
①口口① |----|
②口口② |②---|
②③③② |----③-|
57
③④③④ |①-②-|
①②①② |③-④-|
口⑤⑤口 |----|
口口口口 |⑤---|
58
口口口口 |----|
口①①口 |①---|
②③③② |②---|
①②②① |----③-|
59
①②①② |①-②-|
③④③④ |③-④-|
口口口口 |----|
口口口口 |----|
60
①②①② |①---|
③口③口 |----|
①②①② |②---|
口口口口 |----③-|
61
①⑤①⑤ |①-②-|
口②口② |③-④-|
③口③口 |----|
口④口④ |⑤---|
62
口口口口 |①---|
①口口② |②---|
③①②④ |③---|
口③④口 |④---|
63
①③③② |①---|
④①②⑤ |②---③-|
口④⑤口 |④---|
口口口口 |⑤---|
64
①口口② |①---|
口①②口 |②---|
③口口④ |③---|
口③④口 |④---|
65
③③④④ |①---②-|
②③④② |----③-|
口①①口 |----④-|
口口口口 |----|

BPM: 205.5
66
口口口口 |①---|
口口④④ |②---|
③③②② |③---|
①①口口 |④---|
67
③口②口 |①---|
①①⑤④ |②-③-|
口口口口 |----④-|
口口口口 |⑤---|
68
口口口口 |①---|
④④口口 |②---|
②②③③ |③---|
口口①① |④---|
69
口②口③ |①---|
④⑤①① |②-③-|
口口口口 |----④-|
口口口口 |⑤---|
70
口口口口 |①---|
口口④④ |②---|
③③②② |③---|
①①口口 |④---|
71
③口②口 |①---|
①①⑤④ |②-③-|
口口口口 |----④-|
口口口口 |⑤---|
72
⑤口口⑤ |①---|
④④口口 |②---|
②②③③ |③---|
口口①① |④-⑤-|
73
口口口口 |----|
③④④② |①---|
②④④③ |②---|
口①①口 |③---④-|
74
①①①① |----①-|
口口口口 |----|
口口口口 |----|
口口口口 |----|


不确定度: 0

最終更新:2012年12月04日 13:21