嘘憑きとサルヴァドール
小南泰葉

BASIC

Level: 4
BPM: 228
Notes: 155

1
口口口口 |----|
口口口口 |----|
口口口口 |----|
口口口口 |----|
2
口①口口 |①---|
口口口口 |----|
口口口口 |----|
口口口口 |----|
3
口口口口 |①---|
口口②① |----|
口口口口 |②---|
口口口口 |----|
4
口口口口 |①---|
口①口口 |----|
口口口口 |----|
口口口口 |----|
5
口口口口 |①---|
口口口口 |----|
①②口口 |②---|
口口口口 |----|
6
口口口口 |①---|
口口口口 |----|
口口①口 |----|
口口口口 |----|
7
口口口口 |①---|
口口②① |----|
口口口口 |②---|
口口口口 |----|
8
口口口口 |①---|
口①口口 |----|
口口口口 |----|
口口口口 |----|
9
口口口口 |①---|
口口口口 |----|
①②口口 |②---|
口口口口 |----|
10
口口口口 |①---|
口口口口 |----|
口口①口 |----|
口口口口 |----|
11
口口口口 |①---|
口口口口 |----|
口口口口 |②---|
口口②① |----|
12
口口口口 |①---|
口口口口 |----|
口口口口 |----|
口①口口 |----|
13
口口口口 |①---|
口口口口 |----|
①②口口 |②---|
口口口口 |----|
14
口口口口 |①---|
口口口口 |----|
口口①口 |----|
口口口口 |----|
15
口口口口 |①---|
口口口口 |----|
口口口口 |②---|
口口②① |----|
16
口口口口 |①---|
口口口口 |----|
口口口口 |----|
口①口口 |----|
17
口口口口 |①---|
口口口口 |----|
①②口口 |②---|
口口口口 |----|
18
口口口口 |①---|
口口①口 |----|
口口口口 |----|
口口口口 |----|
19
口口口口 |①---|
口①口口 |----|
口口口口 |----|
口口口口 |----|
20
口口①口 |①---|
口口口② |----|
口口口口 |②---|
口口口口 |----|
21
口口口口 |①---|
口口口口 |----|
口口①口 |②---|
口口口② |----|
22
口口口口 |①---|
口口口① |----|
口口口口 |----|
口口口口 |----|
23
口口口口 |①---|
①口口口 |----|
口口口口 |----|
口口口口 |----|
24
口口口口 |①---|
口口口口 |----|
口口①口 |②---|
口②口口 |----|
25
口口口口 |----|
口口口口 |----|
口口口口 |----|
口口口口 |----|
26
口口口口 |①---|
口①口口 |----|
口口口口 |----|
口口口口 |----|
27
口口口口 |①---|
口口①口 |----|
口口口口 |----|
口口口口 |----|
28
口①口口 |①---|
②口口口 |----|
口口口口 |②---|
口口口口 |----|
29
口口口口 |①---|
口口口口 |----|
口①口口 |②---|
②口口口 |----|
30
口口口口 |①---|
①口口口 |----|
口口口口 |----|
口口口口 |----|
31
口口口口 |①---|
口口口① |----|
口口口口 |----|
口口口口 |----|
32
口口口口 |①---|
口口口口 |----|
口口口口 |----|
口①①口 |----|
33
口②②口 |①---|
口口口① |----|
口口口口 |②---|
口口口口 |----|
34
口口口口 |①---|
口口①口 |----|
口口口口 |----|
口口口口 |----|
35
口口口口 |①---|
口口口口 |----|
①②口口 |②---|
口口口口 |----|
36
口口口口 |①---|
口口口口 |----|
口口①口 |----|
口口口口 |----|
37
口口口口 |①---|
口口口口 |----|
口口口口 |②---|
口口②① |----|
38
口口口口 |①---|
口口口口 |----|
口口口口 |----|
口①口口 |----|
39
口口口口 |①---|
口口口口 |----|
①②口口 |②---|
口口口口 |----|
40
口口口口 |①---|
口口口口 |----|
口口①口 |----|
口口口口 |----|
41
口口口口 |①---|
口口口口 |----|
口口口口 |②---|
口口②① |----|
42
口口口口 |①---|
口口①口 |----|
口口口口 |----|
口口口口 |----|
43
口口口口 |①---|
口①口口 |----|
口口口口 |----|
口口口口 |----|
44
口口①口 |①---|
口口口② |----|
口口口口 |②---|
口口口口 |----|
45
口口口口 |①---|
口口口口 |----|
口口①口 |②---|
口口口② |----|
46
口口口口 |①---|
口口口① |----|
口口口口 |----|
口口口口 |----|
47
口口口口 |①---|
①口口口 |----|
口口口口 |----|
口口口口 |----|
48
口口口口 |①---|
口口口口 |----|
口口①口 |②---|
口②口口 |----|
49
口口口口 |----|
口口口口 |----|
口口口口 |----|
口口口口 |----|
50
口口口口 |①---|
口①口口 |----|
口口口口 |----|
口口口口 |----|
51
口口口口 |①---|
口口①口 |----|
口口口口 |----|
口口口口 |----|
52
口①口口 |①---|
②口口口 |----|
口口口口 |②---|
口口口口 |----|
53
口口口口 |①---|
口口口口 |----|
口①口口 |②---|
②口口口 |----|
54
口口口口 |①---|
①口口口 |----|
口口口口 |----|
口口口口 |----|
55
口口口口 |①---|
口口口① |----|
口口口口 |----|
口口口口 |----|
56
口口口口 |①---|
口口口口 |----|
口口口口 |----|
口①①口 |----|
57
口口口口 |----|
口口口口 |----|
口①口口 |----|
口口口口 |①---|
58
口口口口 |①---|
口②口口 |----|
口口①口 |②---|
口口口口 |----|
59
口口①口 |①---|
口口口② |----|
口口口口 |②---|
口口口口 |----|
60
口口口口 |①---|
口②口口 |----|
口口①口 |②---|
口口口口 |----|
61
口口口口 |①---|
口口口口 |----|
①口口口 |②---|
口②口口 |----|
62
口口口口 |①---|
口②口口 |----|
口口①口 |②---|
口口口口 |----|
63
口口①口 |①---|
口口口② |----|
口口口口 |②---|
口口口口 |----|
64
口口口口 |①---|
口口口口 |----|
口口①口 |----|
口口口口 |----|
65
①口口口 |----|
②口口口 |----|
口口口口 |①---|
口口口口 |②---|
66
口②口口 |①---|
口③口口 |②---|
①④口口 |③---|
口口口口 |④---|
67
口口①④ |①---|
口口②口 |②---|
口口③口 |③---|
口口口口 |④---|
68
口口③口 |①---|
口口④① |②---|
口口口② |③---|
口口口口 |④---|
69
口口口口 |①---|
口口口口 |----|
口口①口 |②---|
②口口② |----|
70
口口口口 |①---|
口口口口 |----|
①口口② |②---|
口口口口 |----|
71
口②②口 |①---|
口口口口 |----|
口①①口 |②---|
口口口口 |----|
72
口口口口 |----|
口口口口 |①---|
①②③口 |②---|
口口口口 |③---|
73
口口②口 |①---|
口①口口 |②---|
口口口口 |----|
口口口口 |----|
74
口口口口 |①---|
口口口口 |----|
②口口① |②---|
口口口口 |----|
75
口口口口 |①---|
口口口口 |----|
口②①口 |②---|
口口口口 |----|
76
口口口口 |①---|
口①①口 |----|
口口口口 |----|
口口口口 |----|
77
②口口② |①---|
口口口口 |----|
口口口口 |②---|
口①①口 |----|
78
口口口口 |----|
口口口口 |----|
口口①口 |①---|
口口口口 |----|
79
口口③口 |①---|
口②口口 |----|
口口口口 |②---|
口①口口 |③---|
80
口口口口 |----|
口口①口 |----|
口口口口 |----|
口口口口 |①---|
81
口①口口 |①---|
口口口口 |----|
口口口口 |----|
口口口口 |----|
82
口口口口 |①---|
口口口口 |----|
①②口口 |②---|
口口口口 |----|
83
口口口口 |①---|
口口口口 |----|
口口②① |②---|
口口口口 |----|
84
口口口口 |①---|
②口口② |----|
口口口口 |②---|
①口口① |----|
85
口口口口 |①---|
口口口口 |----|
③①①③ |②---|
口②②口 |③---|
86
①①①① |①---|
口口口口 |----|
口口口口 |----|
口口口口 |----|


不确定度: 0

最終更新:2012年12月04日 01:26