嘘憑きとサルヴァドール
小南泰葉

ADVANCED

Level: 8
BPM: 228
Notes: 459

1
口口口口 |----|
口口口口 |----|
口口口口 |----|
口口口口 |----|
2
口①①口 |①---|
口口口口 |②-③-|
⑤⑥③口 |④-⑤-|
口④⑦② |⑥-⑦-|
3
④口②⑤ |①---|
口③⑥口 |②-③-|
口口口① |④---|
口口口口 |⑤-⑥-|
4
口①口口 |①---|
口口口口 |②-③-|
口③⑥⑤ |④-⑤-|
②⑦④口 |⑥-⑦-|
5
⑤②口④ |①---|
口⑥③口 |②-③-|
①口口口 |④---|
口口口口 |⑤-⑥-|
6
口口①口 |①---|
口口口口 |②-③-|
⑤⑥③口 |④-⑤-|
口④⑦② |⑥-⑦-|
7
④口②⑤ |①---|
口③⑥口 |②-③-|
口口口① |④---|
口口口口 |⑤-⑥-|
8
口①口口 |①---|
口口口口 |②-③-|
口③⑥⑤ |④-⑤-|
②⑦④口 |⑥-⑦-|
9
⑤②口④ |①---|
口⑥③口 |②-③-|
①口口口 |④---|
口口口口 |⑤-⑥-|
10
口口①口 |①---|
口口口口 |②-③-|
③②口⑦ |④-⑤-|
④⑤⑥口 |⑥-⑦-|
11
②口④口 |①---|
⑤③①口 |②-③-|
口⑥口口 |④---|
口口口口 |⑤-⑥-|
12
口口口口 |①---|
口口口口 |②-③-|
⑦口②③ |④-⑤-|
①⑥⑤④ |⑥-⑦-|
13
口④口② |①---|
口①③⑤ |②-③-|
口口⑥口 |④---|
口口口口 |⑤-⑥-|
14
口口口口 |①---|
口口口口 |②-③-|
③②口⑦ |④-⑤-|
④⑤⑥① |⑥-⑦-|
15
②口④口 |①---|
⑤③①口 |②-③-|
口⑥口口 |④---|
口口口口 |⑤-⑥-|
16
口口口口 |①---|
口口口口 |②-③-|
⑦口②③ |④-⑤-|
①⑥⑤④ |⑥-⑦-|
17
④④口② |①---|
口①③口 |②-③-|
口口口口 |④---|
口口口口 |----|
18
口⑥①⑤ |①---|
②③口口 |②-③-|
口口④口 |④---|
口口口口 |⑤-⑥-|
19
⑦口⑥口 |①-②-|
口⑤①⑧ |③-④-|
②口口④ |⑤-⑥-|
口③口口 |⑦-⑧-|
20
口④口口 |①-②-|
⑤口③口 |③-④-|
口①口口 |⑤---|
口口②⑥ |⑥---|
21
②口口① |①---|
口④④口 |②---|
口口口口 |③---|
③口口口 |④---|
22
口④③口 |①---|
口口口② |②-③-|
⑤口口口 |④---|
口①①口 |⑤---|
23
口③口口 |①---|
口口口② |②---|
口口口口 |③---|
口口①口 |----|
24
口口口口 |①---|
口口口口 |--②-|
口①①口 |③---|
口②③口 |----|
25
口口口口 |----|
口口口口 |----|
口口口口 |----|
口口口口 |----|
26
口口③口 |①-②-|
①口口④ |③-④-|
口②⑤口 |⑤---|
⑥口口口 |⑥---|
27
④口口③ |①---|
②口口口 |②---|
口口口① |③---|
口口口口 |④---|
28
口口①口 |①---|
④口口口 |②---|
口口口② |③---|
口③口口 |④---|
29
口口①口 |①---|
④口口口 |②---|
口口口② |③---|
口③口口 |④---|
30
口口口④ |①---|
口③②口 |--②-|
口①①口 |③---|
口口口口 |④---|
31
①④口口 |①---|
口口口③ |②---|
②口口口 |③---|
口口口口 |④---|
32
口⑤口口 |①---|
口②③④ |②-③-|
口口口口 |④---|
①①①① |⑤---|
33
口口口口 |①---|
②口口口 |②---|
口口①口 |③---|
③③③③ |----|
34
口①①口 |①---|
口口口口 |②-③-|
③②口⑦ |④-⑤-|
④⑤⑥口 |⑥-⑦-|
35
②口④口 |①---|
⑤③①口 |②-③-|
口⑥口口 |④---|
口口口口 |⑤-⑥-|
36
口口口口 |①---|
口口口口 |②-③-|
⑦口②③ |④-⑤-|
①⑥⑤④ |⑥-⑦-|
37
口④口② |①---|
口①③⑤ |②-③-|
口口⑥口 |④---|
口口口口 |⑤-⑥-|
38
口口口口 |①---|
口口口口 |②-③-|
③②口⑦ |④-⑤-|
④⑤⑥① |⑥-⑦-|
39
②口④口 |①---|
⑤③①口 |②-③-|
口⑥口口 |④---|
口口口口 |⑤-⑥-|
40
口口口口 |①---|
口口口口 |②-③-|
⑦口②③ |④-⑤-|
①⑥⑤④ |⑥-⑦-|
41
口④口② |①---|
口①③⑤ |②-③-|
口口⑥口 |④---|
口口口口 |⑤-⑥-|
42
口⑥口口 |①-②-|
⑦①⑤口 |③-④-|
②⑧口④ |⑤-⑥-|
口③口口 |⑦-⑧-|
43
口⑧③口 |①-②-|
⑦④口② |③-④-|
口口⑥口 |⑤-⑥-|
口口①⑤ |⑦-⑧-|
44
口口口口 |①-②-|
⑥口口口 |③-④-|
①②口⑤ |⑤---|
口④③口 |⑥---|
45
②口口① |①---|
口口口口 |②---|
口口口口 |③---|
③口口④ |④---|
46
口口口口 |①---|
口①②口 |--②-|
口③④口 |③---|
口口口口 |--④-|
47
③口口② |①---|
口①口口 |②---|
④口口口 |③---|
口口口口 |④---|
48
口口口口 |①---|
口①①口 |----|
口口口口 |②---|
口②②口 |----|
49
口口口口 |----|
口口口口 |----|
口口口口 |----|
口口口口 |----|
50
口①口口 |①-②-|
口⑧⑦② |③-④-|
③⑤⑥口 |⑤-⑥-|
口口④口 |⑦-⑧-|
51
①口口② |①-②-|
⑤口⑧⑥ |③-④-|
④⑦口③ |⑤-⑥-|
口口口口 |⑦-⑧-|
52
④③口② |①---|
口口口口 |②---|
口口口口 |③---|
口口①口 |④---|
53
口口①口 |①---|
口口④口 |②---|
口②口③ |③---|
口口口口 |④---|
54
口口口口 |①---|
口③口口 |--②-|
口④②口 |③---|
口①①口 |--④-|
55
②口口② |①---|
口口①口 |----|
口口口口 |②---|
口口口口 |----|
56
口口口口 |①---|
口口口口 |----|
口口口口 |----|
①①①① |----|
57
口口口口 |----|
口口口口 |----|
口口口口 |----|
口①口口 |①---|
58
口③③口 |①---|
口①①口 |--②-|
口口口② |----|
口口口口 |③---|
59
口口口口 |----|
口口口③ |①---|
口②②口 |②---|
①口口口 |③---|
60
口①①口 |①---|
②口口④ |②---|
口③③口 |③---|
口口口口 |④---|
61
口①①口 |①---|
②口口口 |②---|
口口③口 |③---|
口④口口 |④---|
62
口口②口 |----|
①口口口 |①---|
口口口③ |②---|
口口口口 |③---|
63
口③③口 |----|
口口口口 |①---|
口口②口 |②---|
口①口口 |③---|
64
口口口口 |----|
口口口口 |----|
口口口口 |----|
口口口口 |----|
65
口口口口 |----|
②口口口 |----|
口①口口 |①---|
口口口口 |②---|
66
口①口口 |①---|
④④②② |②---|
口口③③ |③---|
口口口口 |④---|
67
③口口③ |①---|
④口口④ |②---|
①①口口 |③---|
口②②口 |④---|
68
口②②口 |①---|
口③③口 |②---|
①④④① |③---|
⑤口口口 |④-⑤-|
69
③口口③ |①---|
②口口② |--②-|
口口口口 |③---|
口口口① |----|
70
③口口④ |①---|
口①②口 |②---|
口②①口 |③---|
④口口③ |④---|
71
口②②口 |----|
②口口② |①---|
口①①口 |②---|
口口口口 |----|
72
①口口口 |----|
口口口② |①---|
③①口③ |②---|
口口②口 |③---|
73
口③③口 |①-②-|
④口口④ |③---|
口口②口 |----|
口①口口 |④---|
74
口②②口 |①---|
④口口④ |②---|
口③③口 |③---|
口①①口 |④---|
75
⑤口口⑤ |①---|
口②③口 |②-③-|
④口口④ |--④-|
口①①口 |--⑤-|
76
口口口口 |----|
口口口口 |----|
口口口口 |----|
口口口口 |----|
77
③③③③ |①---|
口口口口 |②---|
②口口② |③---|
口①①口 |----|
78
口①口口 |----|
①口口口 |----|
口口口口 |①---|
口口口口 |----|
79
口③③口 |①---|
口口①口 |----|
口②口① |②---|
口口②口 |③---|
80
口口口口 |----|
口口口口 |----|
①口口① |----|
口口口口 |①---|
81
①口口① |①---|
口口口口 |----|
口口口口 |----|
口口口口 |----|
82
口口⑥口 |①-②-|
口⑤口⑥ |③-④-|
①④口口 |⑤---|
②③口口 |⑥---|
83
口⑤口口 |①-②-|
④口⑥口 |③---|
口口②口 |④---|
口③口① |⑤-⑥-|
84
口口②⑤ |①---|
口③口口 |②-③-|
口①④口 |④---|
口口口口 |⑤---|
85
口口口口 |①---|
口口口④ |----|
口口③③ |②-③-|
①口②② |④---|
86
口口口① |①---|
口口①口 |----|
口①口口 |----|
①口口口 |----|


不确定度: 0

最終更新:2012年12月04日 01:25