嘘憑きとサルヴァドール
小南泰葉

EXTREME

Level: 10
BPM: 228
Notes: 708

1
口口口口 |----|
口口口口 |----|
口口口口 |----|
口口口口 |----|
2
口②口口 |①---|
口③④口 |②-③-|
①⑥⑤① |④-⑤-|
口⑦口口 |⑥-⑦-|
3
口③②口 |①---|
①口口① |②-③-|
④口口④ |④---|
口⑥⑤口 |⑤-⑥-|
4
口口②口 |①---|
口④③口 |②-③-|
口⑤⑥口 |④-⑤-|
①口⑦① |⑥-⑦-|
5
①②③① |①---|
④口口④ |②-③-|
口口口口 |④---|
口⑤⑥口 |⑤-⑥-|
6
口②口口 |①---|
口③④口 |②-③-|
①⑥⑤① |④-⑤-|
口⑦口口 |⑥-⑦-|
7
口③②口 |①---|
①口口① |②-③-|
④口口④ |④---|
口⑥⑤口 |⑤-⑥-|
8
口口②口 |①---|
口④③口 |②-③-|
口⑤⑥口 |④-⑤-|
①口⑦① |⑥-⑦-|
9
①②③① |①---|
④口口④ |②-③-|
口口口口 |④---|
口⑤⑥口 |⑤-⑥-|
10
①口口① |①---|
⑤口口④ |②-③-|
②口口③ |④-⑤-|
⑥口口⑦ |⑥-⑦-|
11
⑥③②⑤ |①---|
口①①口 |②-③-|
口④④口 |④---|
口口口口 |⑤-⑥-|
12
口口口口 |①---|
④口口⑤ |②-③-|
③口口② |④-⑤-|
⑦①①⑥ |⑥-⑦-|
13
⑥③②⑤ |①---|
口④④口 |②-③-|
口①①口 |④---|
口口口口 |⑤-⑥-|
14
口口口口 |①---|
⑤口口④ |②-③-|
②口口③ |④-⑤-|
⑥①①⑦ |⑥-⑦-|
15
⑤②③⑥ |①---|
口①①口 |②-③-|
口④④口 |④---|
口口口口 |⑤-⑥-|
16
口口口口 |①---|
④口口⑤ |②-③-|
③口口② |④-⑤-|
⑦①①⑥ |⑥-⑦-|
17
口③②口 |①---|
口④④口 |②-③-|
口①①口 |④---|
口口口口 |----|
18
口⑥口口 |①---|
②口⑤口 |②-③-|
口③口① |④---|
口口④口 |⑤-⑥-|
19
④口⑤⑤ |①-②-|
口⑥口③ |③-④-|
⑧口①⑦ |⑤-⑥-|
口②口① |⑦-⑧-|
20
口①⑤口 |①-②-|
⑤⑥①口 |③-④-|
口④口⑥ |⑤---|
口②③口 |⑥---|
21
口②口口 |①---|
口口③② |②---|
③④①口 |③---|
①口口④ |④---|
22
口口①① |①---|
①①口口 |②-③-|
⑤口③② |④---|
口口④口 |⑤---|
23
④①①口 |①---|
口口口② |②---|
口口口口 |③---|
口③③口 |④---|
24
口口口④ |①---|
口①①口 |--②-|
②口口口 |③---|
口③口口 |④---|
25
口口口口 |①---|
口①①口 |②---|
口③③口 |③---|
④口口② |④---|
26
①口①口 |①-②-|
口②口③ |③-④-|
⑥口⑥口 |⑤---|
口⑤口④ |⑥---|
27
③①④④ |①---|
①口①口 |②---|
口②口② |③---|
③③②④ |④---|
28
口①④口 |①---|
①③①④ |②---|
③②④② |③---|
口③②口 |④---|
29
①①口④ |①---|
③③①口 |②---|
口②④④ |③---|
③口②② |④---|
30
口①①口 |①---|
口口口④ |--②-|
口③口口 |③---|
口口②口 |④---|
31
口④①口 |①---|
①②口④ |②---|
口口③② |③---|
③口口口 |④---|
32
口口口② |①---|
口口③口 |②-③-|
①①口④ |④---|
⑤口①① |⑤---|
33
口口口口 |①---|
①③③② |②---|
口③③口 |③---|
④③③④ |④---|
34
①口口① |①---|
⑤口口④ |②-③-|
②口口③ |④-⑤-|
⑥口口⑦ |⑥-⑦-|
35
⑥③②⑤ |①---|
口①①口 |②-③-|
口④④口 |④---|
口口口口 |⑤-⑥-|
36
口口口口 |①---|
④口口⑤ |②-③-|
③口口② |④-⑤-|
⑦①①⑥ |⑥-⑦-|
37
⑥③②⑤ |①---|
口④④口 |②-③-|
口①①口 |④---|
口口口口 |⑤-⑥-|
38
口口口口 |①---|
⑤口口④ |②-③-|
②口口③ |④-⑤-|
⑥①①⑦ |⑥-⑦-|
39
⑥③②⑤ |①---|
口①①口 |②-③-|
口④④口 |④---|
口口口口 |⑤-⑥-|
40
口口口口 |①---|
④口口⑤ |②-③-|
③口口② |④-⑤-|
⑦①①⑥ |⑥-⑦-|
41
②③④口 |①-②-|
口⑤⑤口 |③-④-|
口①①口 |⑤-⑥-|
口⑥⑦⑧ |⑦-⑧-|
42
口⑤口④ |①-②-|
①口⑥① |③-④-|
⑦③②口 |⑤-⑥-|
口口⑧口 |⑦-⑧-|
43
①⑤⑥口 |①-②-|
⑤①口⑧ |③-④-|
口⑦④② |⑤-⑥-|
③口口口 |⑦-⑧-|
44
①口⑥① |①-②-|
⑤⑤②口 |③-④-|
③口⑥⑥ |⑤---|
口⑤④口 |⑥---|
45
①④口② |①---|
③③②口 |②---|
口①④④ |③---|
①口③② |④---|
46
口口①口 |①---|
口④②① |--②-|
①③口口 |③---|
口①口口 |--④-|
47
②口③③ |①---|
口口口口 |②---|
口口①① |③---|
口口口④ |④---|
48
口口口口 |①---|
口口口② |②---|
口①口口 |③---|
①③③口 |----|
49
口口口口 |①---|
②口口口 |②---|
口①①④ |③---|
口③③口 |④---|
50
⑤①①口 |①-②-|
口口⑧④ |③-④-|
③⑦②口 |⑤-⑥-|
口口口⑥ |⑦-⑧-|
51
口⑤①① |①-②-|
③口口⑧ |③-④-|
⑦口⑤④ |⑤-⑥-|
②口⑥口 |⑦-⑧-|
52
①④①② |①---|
④②②口 |②---|
④③③口 |③---|
③①口① |④---|
53
②口②口 |①---|
④②口① |②---|
口④③① |③---|
④③①③ |④---|
54
口④③① |①---|
口口①口 |②-③-|
②口口① |④---|
⑤口口口 |--⑤-|
55
③口口③ |①---|
③口口③ |②---|
②口口④ |③---|
口口①① |④---|
56
口②④口 |①---|
口口口口 |②---|
③①①口 |③---|
①①①① |④---|
57
口口口口 |①-②-|
①②③④ |③-④-|
口口⑥⑤ |⑤-⑥-|
口⑦⑦口 |⑦---|
58
④①口口 |①---|
①口③口 |②-③-|
口③口⑤ |④---|
口口⑤② |⑤---|
59
口②口口 |①---|
④口④② |②---|
①口③口 |③---|
③口口口 |④---|
60
口②口② |①---|
④口④口 |②---|
口①口① |③---|
③口③口 |④---|
61
口口②口 |①---|
口④④② |②---|
③①口① |③---|
口③口口 |④---|
62
口口④口 |①---|
③口口④ |②---|
口③①口 |③---|
②口口② |④---|
63
①口口口 |①---|
口②③口 |②---|
③④④② |③---|
④②③④ |④---|
64
①③④② |①---|
②口口① |②---|
④口口③ |③---|
口口口口 |④---|
65
口④口口 |①---|
③①②口 |②---|
口口口口 |③---|
②口口① |④---|
66
口④④口 |①---|
③口②③ |②---|
②③④② |③---|
口①①口 |④---|
67
口口口② |①---|
③①②口 |②---|
④③④② |③---|
③①①口 |④---|
68
①口①口 |①---|
口②⑤② |②---|
口③口③ |③---|
口④口④ |④-⑤-|
69
④①④① |①-②-|
口③口口 |--③-|
②口②口 |④---|
口口口口 |----|
70
口④④口 |①---|
②口口① |②---|
口③③口 |③---|
①口口② |④---|
71
②口口② |①---|
③③③③ |②---|
③③③③ |③---|
口①①口 |----|
72
口②②口 |----|
口口口口 |①---|
口口③口 |②---|
口①①③ |③---|
73
口④④口 |①-②-|
③口口③ |③---|
口②口口 |----|
①口口口 |④---|
74
②口口② |①---|
口④④口 |②---|
口口口口 |③---|
③①①③ |④---|
75
④③③④ |①---|
口⑤⑤③ |②-③-|
②①①口 |--④-|
⑤②②⑤ |--⑤-|
76
口口③④ |①---|
口口口口 |②---|
口口②① |③---|
口口口口 |④---|
77
口③③口 |①---|
①③③② |②---|
口③③口 |③---|
①②①② |----|
78
口口①口 |----|
口口口口 |----|
①口①口 |①---|
口口口口 |----|
79
③③③③ |①---|
口①口① |----|
口②②口 |②---|
②①口② |③---|
80
口口口口 |----|
口口口口 |----|
口①①口 |----|
①口口① |①---|
81
①①①① |①---|
①①①① |----|
口口口口 |----|
口口口口 |----|
82
口口⑥⑥ |①-②-|
①⑤口⑥ |③-④-|
②⑤⑤口 |⑤---|
③④口口 |⑥---|
83
口①口口 |①-②-|
口口②口 |③---|
口口⑥③ |④---|
④④口⑤ |⑤-⑥-|
84
⑤②口⑤ |①---|
②①③① |②-③-|
口③口④ |④---|
口口④口 |⑤---|
85
口③④④ |①---|
③口口④ |----|
②口口③ |②-③-|
①②③① |④---|
86
①口口口 |①---|
口①①口 |----|
口①①口 |----|
口口口① |----|


不确定度: 0

最終更新:2012年12月04日 01:25