Holy Snow
Mutsuhiko Izumi

EXTREME

Level: 10
BPM: 130-160
Notes: 735

BPM: 160
1
口口口口 |----|
口口口口 |----|
口口口口 |----|
口口口口 |----|
2
⑧口口⑦ |①②③④|
⑥口②① |⑤-⑥-|
③④口⑤ |⑦-⑧-|
⑩口口⑨ |⑨-⑩-|
3
⑧口⑨⑦ |①②③④|
⑥口②① |⑤-⑥-|
③④口⑤ |⑦-⑧-|
口口口口 |⑨---|
4
⑧口口⑦ |①②③④|
⑥口②① |⑤-⑥-|
③④口⑤ |⑦-⑧-|
口⑪⑩⑨ |⑨⑩⑪-|
5
口口⑧⑦ |①②③④|
⑥口②① |⑤-⑥-|
③④口⑤ |⑦⑧⑨⑩|
⑨⑩口⑪ |⑪---|
6
⑥口口⑤ |①②③④|
③④⑫⑪ |⑤-⑥-|
⑨⑩②① |⑦⑧⑨⑩|
⑬⑭⑧⑦ |⑪⑫⑬⑭|
7
⑥口口⑤ |①②③④|
③④口口 |⑤-⑥-|
口口②①
口口口口

口口口口
⑬⑭⑧⑦
⑨⑩口口 |⑦⑧⑨⑩|
口口⑫⑪ |⑪⑫⑬⑭|
8
⑮⑯⑩⑨ |①②③④|
⑪⑫⑥⑤ |⑤⑥⑦⑧|
⑦⑧②① |⑨⑩⑪⑫|
③④⑭⑬ |⑬⑭⑮⑯|
9
⑪⑫口⑬ |①②③④|
⑭⑮②① |⑤⑥⑦⑧|
③④⑥⑤ |⑨⑩⑪⑫|
⑦⑧⑩⑨ |⑬-⑭⑮|
10
口口口② |①---|
口口①口 |----|
③④口口 |②---|
口口口② |--③④|
11
④⑥②口 |①---②-|
⑤口口③ |--③---|
⑥口①② |④---⑤-|
④⑤③口 |--⑥---|
12
口口①② |①---|
③④口口 |----|
口口口① |②---|
口口口② |--③④|
13
②④口口 |①---|
③口①口 |----|
④口口口 |②------③--|
②③口口 |---④----|
14
口口①口 |①---|
口口口口 |----|
口口口①
口口口口

口口④②
口口口③
口口口④ |②--③|
口口③② |-----④------|
15
②①口口 |①---|
口口口口 |----|
①口口口 |②---|
②口口口 |----|
16
口④③② |①---|
①①①① |----|
口口口口 |②-③-|
口④③② |④---|
17
②口口口 |①---|
口口口口 |----|
①①①① |②---|
②口口口 |----|
18
口口口口 |①②③④|
⑥⑥②① |⑤-⑥-|
③④口⑤
口口口①

⑧口口⑦
口口口口
口口口口 |⑦-⑧-|
⑩口⑨⑨ |⑨-⑩-|
19
⑧口⑨⑦ |①②③④|
⑥口②① |⑤-⑥-|
③④①⑤ |⑦-⑧-|
口口口口 |⑨---|
20
口口口口 |①②③④|
⑥⑥②① |⑤-⑥-|
③④口⑤
口口口①

⑧口口⑦
口口口口
口口⑨口 |⑦-⑧-|
口⑪⑩⑨ |⑨⑩⑪-|
21
口口①口 |①②③④|
⑥口②① |⑤-⑥-|
③④口⑤
口口口口

⑨⑩口口
口口⑫⑪
⑬⑭口口 |⑦⑧⑨⑩|
口口⑧⑦ |⑪⑫⑬⑭|
22
口口④② |①②-③|
⑧⑥口⑩ |④-⑤⑥|
口口③① |-⑦⑧-|
⑦⑤口⑨ |⑨-⑩-|
23
②④口口 |①②-③|
⑩口⑥⑧ |④-⑤⑥|
①③口口 |-⑦⑧-|
⑨口⑤⑦ |⑨-⑩-|
24
⑤口口④ |①②③-|
口口口口 |④-⑤-|
口③②①
口口口口

口口口口
⑨⑧口口
⑪口口⑩ |⑥⑦⑧⑨|
口口⑦⑥ |⑩-⑪-|
25
⑦⑧②① |①②③④|
⑪⑫⑥⑤ |⑤⑥⑦⑧|
口口⑩⑨ |⑨⑩⑪⑫|
③④口⑬ |⑬---|
26
口口口口 |①②③④|
⑥口②① |⑤-⑥-|
③④口⑤
①口⑥口

⑧口口⑦
口⑨口口
口口口口 |⑦-⑧-|
⑩口口⑨ |⑨-⑩-|
27
⑧①⑨⑦ |①②③④|
⑥口②① |⑤-⑥-|
③④口⑤ |⑦-⑧-|
口口口口 |⑨---|
28
口口口口 |①②③④|
⑥口②① |⑤-⑥-|
③④⑥⑤
口①口口

⑧口口⑦
口⑨口口
口口口口 |⑦-⑧-|
口⑪⑩⑨ |⑨⑩⑪-|
29
口口口口 |①②③④|
⑥口②① |⑤-⑥-|
③④口⑤
①口口口

⑨⑩口口
口口⑫⑪
⑬⑭口口 |⑦⑧⑨⑩|
口口⑧⑦ |⑪⑫⑬⑭|
30
口口④② |①②-③|
⑧⑥口⑩ |④-⑤⑥|
口口③① |-⑦⑧-|
⑦⑤口⑨ |⑨-⑩-|
31
②④口口 |①②-③|
⑩口⑥⑧ |④-⑤⑥|
①③口口 |-⑦⑧-|
⑨口⑤⑦ |⑨-⑩-|
32
⑤口口④ |①②③-|
口口口口 |④-⑤-|
口③②①
口口口口

口口口口
⑨⑧口口
⑪口口⑩ |⑥⑦⑧⑨|
口口⑦⑥ |⑩-⑪-|
33
⑦⑧②① |①②③④|
⑪⑫⑥⑤ |⑤⑥⑦⑧|
⑭⑮⑩⑨ |⑨⑩⑪⑫|
③④口⑬ |⑬-⑭⑮|
34
②口①① |①-②-|
④口③口 |③-④-|
口⑦口口 |--⑤-|
口⑤口⑥ |⑥-⑦-|
35
⑤口口③ |①②③-|
口⑥⑧② |④-⑤-|
④口口① |--⑥-|
口⑦口口 |⑦-⑧-|
36
④口口口 |①-②-|
⑤⑥口② |③-④-|
口③口⑦ |--⑤-|
口口①口 |⑥-⑦-|
37
口⑤③⑩ |①②③-|
口口②⑨ |④-⑤-|
口④①⑧ |⑥-⑦-|
⑦口口⑥ |⑧⑨⑩-|
38
口④②口 |①-②-|
⑤口口⑥ |③-④-|
⑦口口口 |--⑤-|
口③①口 |⑥-⑦-|
39
②④③① |①---|
口口口口 |②---|
口口口口 |③---|
②④③① |④---|
40
口④③② |①---|
口①①口 |②---|
口①①口 |③---|
口④③② |④---|
41
①口③② |①---|
口口口口 |②---|
口口口口 |③---|
①口③② |----|
42
①①口② |①---|
口口口口 |----|
口口口口 |②---|
①①口② |----|
43
②口口口 |①---|
口①①口 |----|
口①①口 |②---|
②口口口 |----|
44
口口口② |----|
口口①口 |①---|
口③口口 |②---|
口口口② |③---|
45
③②④口 |①---|
①口口口 |②---|
口口口口 |③---|
③②④口 |④---|
46
②口口① |①---|
口口④③ |----|
口口口口 |②---|
②口口① |③-④-|
47
口口口② |①---|
口①口口 |----|
口口口口 |②---|
口口口② |----|
48
②口口③ |①---|
口①①口 |----|
口①①口 |②-③-|
②口口③ |----|
49
⑮⑯⑩⑨ |①②③④|
⑪⑫②① |⑤⑥⑦⑧|
③④⑥⑤ |⑨⑩⑪⑫|
⑦⑧⑭⑬ |⑬⑭⑮⑯|
50
⑧口口⑦ |①②③④|
⑥口②① |⑤-⑥-|
③④口⑤ |⑦-⑧-|
⑩口口⑨ |⑨-⑩-|
51
⑧口⑨⑦ |①②③④|
⑥口②① |⑤-⑥-|
③④口⑤ |⑦-⑧-|
口口口口 |⑨---|
52
⑧口口⑦ |①②③④|
⑥口②① |⑤-⑥-|
③④口⑤ |⑦-⑧-|
口⑪⑩⑨ |⑨⑩⑪-|
53
口口口口 |①②③④|
⑥口②① |⑤-⑥-|
③④口⑤
口口口口

⑨⑩口口
口口口⑪
口口口口 |⑦⑧⑨⑩|
口口⑧⑦ |⑪---|
54
⑥⑭口① |①②③④|
⑬④②⑦ |⑤-⑥-|
③⑩⑧⑪ |⑦⑧⑨⑩|
⑨口⑫⑤ |⑪⑫⑬⑭|
55
③口口① |①②③④|
口④②口 |⑤-⑥-|
口口口口
⑥口口⑤

口口⑧口
⑬口⑫⑦
⑨⑭口⑪ |⑦⑧⑨⑩|
口⑩口口 |⑪⑫⑬⑭|
56
③④⑭⑬ |①②③④|
⑪⑧⑩⑤ |⑤⑥⑦⑧|
⑦⑫⑥⑨ |⑨⑩⑪⑫|
⑮⑯②① |⑬⑭⑮⑯|
57
③口口口 |①②③④|
口④⑥⑤ |⑤⑥⑦⑧|
⑦⑧②口
口口口①

口⑫口⑬
⑪口口口
口口口⑨ |⑨⑩⑪⑫|
口口⑩⑬ |⑬---|
58
⑧口口⑦ |①②③④|
⑥口②① |⑤-⑥-|
③④⑦⑤ |⑦-⑧-|
⑩口口⑨ |⑨-⑩-|
59
⑧口⑨⑦ |①②③④|
⑥口②① |⑤-⑥-|
③④口⑤ |⑦-⑧-|
口口口口 |⑨---|
60
⑧口口⑦ |①②③④|
⑥口②① |⑤-⑥-|
③④⑦⑤ |⑦-⑧-|
口⑪⑩⑨ |⑨⑩⑪-|
61
口口口口 |①②③④|
⑥口②① |⑤-⑥-|
③④口⑤
口口口口

⑨⑩口口
口口口⑪
口口口口 |⑦⑧⑨⑩|
口口⑧⑦ |⑪---|
62
⑥⑭口① |①②③④|
⑬④②⑦ |⑤-⑥-|
③⑩⑧⑪ |⑦⑧⑨⑩|
⑨⑦⑫⑤ |⑪⑫⑬⑭|
63
③口⑫① |①②③④|
⑬④②⑪ |⑤-⑥-|
⑥⑭⑧⑦ |⑦⑧⑨⑩|
⑨⑩口⑤ |⑪⑫⑬⑭|
64
⑥⑭口① |①②③④|
⑬④②⑦ |⑤-⑥-|
③⑩⑧⑪ |⑦⑧⑨⑩|
⑨⑦⑫⑤ |⑪⑫⑬⑭|
65
③口口① |①②③④|
口④②口 |⑤-⑥-|
口口口口
⑥口口⑤

口口⑧口
⑬口⑫⑦
⑨⑭口⑪ |⑦⑧⑨⑩|
口⑩口口 |⑪⑫⑬⑭|
66
③口⑥⑤ |①②③④|
口④口口 |⑤⑥⑦⑧|
口口口口
⑦⑧②①

⑮⑯口口
⑪口⑩⑬
⑨⑫⑭⑨ |⑨⑩⑪⑫|
口口口口 |⑬⑭⑮⑯|
67
口口②① |①②③④|
⑪⑧⑩⑨ |⑤⑥⑦⑧|
⑦⑫⑬⑤ |⑨⑩⑪⑫|
③④⑥口 |⑬---|

BPM: 155
68
③④口口 |①②③④|
⑦口⑥⑤ |⑤⑥⑦⑧|
口⑧口①
口口②口

BPM: 150
口口口口
口口口口
⑨口⑩口 |⑨⑩⑪⑫|
⑪⑫口⑨

BPM: 140
⑮⑯口口
口口口口
口口口⑬
口口⑭口 |⑬⑭⑮⑯|

BPM: 130
69
口口口口 |①②③④|
③口②① |⑤⑥⑦⑧|
口④⑥口
⑦⑧口⑤

⑪口⑩⑨
口⑫⑬口
口口口口 |⑨⑩⑪⑫|
口口口口 |⑬---|

BPM: 160
70
口口口口 |----|
口口口口 |----|
口口口口 |----|
①①①① |--①-|


不确定度: 0

最終更新:2012年12月27日 16:45