マジLOVE1000%
ST☆RISH

EXTREME

Level: 9
BPM: 129
Notes: 539

1
口口口口 |----|
口口口口 |----|
口口口口 |----|
①口口② |①-②-|
2
①口口② |①-②-|
口④口口 |③-④-|
口口口口
口③口口

⑦口口口
口口口口
⑤⑧⑥口 |⑤-⑥-|
口口口口 |⑦-⑧-|
3
③口①① |①--②|
③口①② |--③-|
口口②①
口②①①

口⑤口口
口口口口
④④口口 |④---|
口口⑤口 |⑤---|
4
①口①① |①---|
①④①① |--②③|
③口②口 |④⑤--|
口⑤口口 |----|
5
②口①① |①---|
口④①① |--②-③-|
口口③① |④⑤--|
口⑤①① |----|
6
口①④口 |①---|
①②①③ |--②③|
口①⑤① |④⑤--|
口口①口 |----|
7
①①②② |①---|
口①②口 |----|
口①②② |②---|
口①②② |----|
8
①①④口 |①---|
①口口口 |②-③-|
②①⑤口 |④⑤--|
①①口③ |----|
9
口①②① |①---|
④①①① |②-③-|
口口口① |④⑤--|
⑤口口③ |----|
10
②口①口 |①---|
口口④① |--②-|
①口①③ |③④⑤-|
口①⑤口 |----|
11
①①口② |①---|
口①②② |----|
①口口② |②---|
①①口② |----|
12
口口口口 |----|
口口口口 |----|
口口口口 |----|
口口口口 |----|
13
①口口① |----|
②口口② |①---|
③口口③ |②---|
口口口口 |③---|
14
口①口⑥ |①②③④|
⑧口②⑧ |⑤-⑥⑦|
⑦③口口 |--⑧-|
⑨⑤④⑨ |⑨---|
15
⑥口①口 |①②③④|
⑧②口⑧ |⑤-⑥⑦|
口口③⑦ |--⑧-|
⑨④⑤⑨ |⑨---|
16
⑧口⑥⑧ |①②③④|
⑨⑤口⑨ |⑤-⑥⑦|
⑦③④口 |--⑧-|
⑩①②⑩ |⑨-⑩-|
17
④②①④ |①-②-|
口⑤⑤口 |③-④-|
③⑥⑥③ |--⑤-|
口①②口 |⑥---|
18
①口⑥口 |①②③④|
口⑧⑧② |⑤-⑥⑦|
③⑦口口 |--⑧-|
⑤⑨⑨④ |⑨---|
19
口⑥口① |①②③④|
②口口口 |⑤-⑥⑦|
口口⑦③
④口口⑤

⑩口口⑨
口口口口
⑨口口⑩ |--⑧-|
口⑧⑧口 |⑨-⑩-|
20
口①①口 |--①-|
口口口口 |②---|
口②②口
口口口口

③⑥⑥③
④③③④
口口口口 |③-④-|
⑤口口⑤ |⑤-⑥-|
21
②口口① |--①-|
口口口口 |②---|
口口口口
口①②口

⑥口口⑥
③④④③
口③③口 |③-④-|
⑤口口⑤ |⑤-⑥-|
22
⑤②①⑤ |--①-|
口⑤⑤口 |②---|
③①②④ |③---|
③口口④ |④-⑤-|
23
口口口口 |----|
口口口口 |----|
口口口口 |----|
口口口口 |----|
24
口①②口 |①--②|
②③③① |--③-|
①③③② |----|
口②①口 |----|
25
口③④口 |①-②-|
⑤口口口 |③④-⑤|
口①①口
口②②口

口口口口
口⑦口⑥
口口口口 |--⑥-|
口口⑧口 |⑦-⑧-|
26
口③④口 |①-②-|
口⑤②口 |③-④-|
⑥①口口 |--⑤-|
⑦口口口 |⑥-⑦-|
27
口③④口 |①-②-|
⑤口口口 |③④-⑤|
口①①口
口②②口

口口口口
口⑦口⑥
口口口口 |--⑥-|
口口⑧口 |⑦-⑧-|
28
①⑤④① |①--②|
②④⑤② |--③-|
③口口③ |④---|
口口口口 |⑤---|
29
口④⑤口 |①-②-|
⑥⑧⑧⑥ |③-④⑤|
③①①③ |--⑥-|
⑦②②⑦ |⑦-⑧-|
30
⑤③②⑥ |①-②-|
④口口④ |③-④-|
口②③口 |----|
口①①口 |⑤-⑥-|
31
口⑤①口 |①-②-|
⑥口口② |③-④-|
口⑦③口 |⑤-⑥-|
⑧口口④ |⑦-⑧-|
32
③口①① |①--②|
③口①② |--③-|
口口②①
口②①①

口口口口
口口口口
④④口口 |④---|
口口⑤⑥ |⑤⑥--|
33
口口口⑤ |①---|
④口口① |②③--|
口口口口 |④---|
③②口口 |--⑤-|
34
⑥口③口 |①-②-|
口口口④ |③-④-|
口⑤①② |--⑤-|
口口口口 |⑥---|
35
口口②③ |①---|
口①⑥⑥ |②③--|
⑤⑤口④ |④---|
口口口口 |--⑤⑥|
36
①①口③ |①--②|
③口口口 |--③-|
口口口口
口②②口

⑤口口口
口口口口
口口口口 |----|
口④口口 |④-⑤-|
37
⑥①口⑦ |--①-|
②⑤口口 |②-③-|
口③口口 |④-⑤⑥|
④口口口 |--⑦-|
38
口口①⑥ |--①-|
口口⑤② |②-③-|
口口③口 |④-⑤⑥|
口口口④ |----|
39
①①④④ |①-②③|
口②⑤口 |----|
口③⑥口 |④-⑤⑥|
口口口口 |----|
40
②②③③ |①-②③|
①④④① |--④-|
口口口口
口口口口

⑦口口⑦
口口口口
⑤口口⑤ |⑤--⑥|
口⑥⑥口 |--⑦-|
41
口②③口 |①-②③|
口②③口 |----|
口①①口 |----|
口口口口 |----|
42
①口口① |----|
②口口② |①---|
③口口③ |②---|
口口口口 |③---|
43
口①口⑥ |①②③④|
⑧口②⑧ |⑤-⑥⑦|
⑦③口口 |--⑧-|
⑨⑤④⑨ |⑨---|
44
⑥口①口 |①②③④|
⑧②口⑧ |⑤-⑥⑦|
口口③⑦ |--⑧-|
⑨④⑤⑨ |⑨---|
45
⑧口⑥⑧ |①②③④|
⑨⑤口⑨ |⑤-⑥⑦|
⑦③④口 |--⑧-|
⑩①②⑩ |⑨-⑩-|
46
④②①④ |①-②-|
口⑤⑤口 |③-④-|
③⑥⑥③ |--⑤-|
口①②口 |⑥---|
47
①口④② |①-②-|
口⑥⑥口 |③-④⑤|
口⑤口口 |--⑥-|
③⑦⑦口 |⑦---|
48
口⑥口① |①②③④|
②口口口 |⑤-⑥⑦|
口口⑦③
④口口⑤

⑩口口⑨
口口口口
⑨口口⑩ |--⑧-|
口⑧⑧口 |⑨-⑩-|
49
口①①口 |--①-|
口口口口 |②---|
口②②口
口口口口

③⑥⑥③
④③③④
口口口口 |③-④-|
⑤口口⑤ |⑤-⑥-|
50
②口口① |--①-|
口口口口 |②---|
口口口口
口①②口

⑥口口⑥
③④④③
口③③口 |③-④-|
⑤口口⑤ |⑤-⑥-|
51
⑤②①⑤ |--①-|
口⑤⑤口 |②---|
③①②④ |③---|
③口口④ |④-⑤-|
52
口口口口 |----|
口口口口 |----|
口口口口 |----|
口口口口 |----|
53
④①②⑤ |①--②|
②③③① |--③-|
①③③② |----|
口②①口 |④-⑤-|
54
口口口口 |①-②-|
口口口口 |③-④-|
①口口④
③口口②

口口口口
口⑦口⑤
⑧口⑥口 |⑤-⑥-|
口口口口 |⑦-⑧-|
55
③口①① |①--②|
③口①② |--③-|
④④②① |④---|
口②①① |----|

不確定度: 0

最終更新:2014年08月01日 02:34