こんなに近くで...

BASIC

Level: 2
BPM: 102
Notes: 184

1
口口口口 |----|
口口口口 |----|
口口口口 |----|
口口口口 |----|
2
口口口口 |----|
口①①口 |①---|
口②②口 |---②|
口口口口 |----|
3
口①①口 |----|
口口口口 |①---|
口口口口 |---②|
口②②口 |----|
4
口口口口 |----|
①口口① |①---|
②口口② |---②|
口口口口 |----|
5
口口口口 |----|
口①①口 |①---|
口②②口 |---②|
口口口口 |----|
6
口口口口 |----|
口①②口 |①---|
口②①口 |---②|
口口口口 |----|
7
口口口口 |----|
①口口口 |①---|
口口口① |----|
口口口口 |----|
8
口口口口 |----|
口口①口 |①--②|
口②口口 |----|
口口口口 |----|
9
口口口口 |①---|
口①③口 |②---|
口口②口 |----|
口口口口 |---③|
10
口口口口 |---①|
口口口口 |----|
口①口口 |----|
口口口口 |----|
11
口口口口 |①---|
口①①② |----|
②①①口 |②---|
口口口口 |----|
12
口口口口 |①---|
①口②口 |②--③|
口③口① |----|
口口口口 |----|
13
口口口口 |①---|
口①口口 |----|
口口②口 |②---|
口口口口 |----|
14
口口口口 |①---|
口口口① |---②|
②口口口 |----|
口口口口 |----|
15
口口口口 |①---|
①口口口 |----|
口口口② |②---|
口③③口 |③---|
16
口口口口 |----|
口口口口 |①---|
口①①口 |----|
口口口口 |----|
17
口口口口 |①---|
口口①口 |②---|
口②口口 |----|
口③口口 |③---|
18
口口口口 |①---|
口②口③ |②---|
③口①口 |----|
口口口口 |③---|
19
口口口口 |①---|
①②②口 |----|
口②②① |②---|
口口口口 |----|
20
口口①① |--①-|
②②口口 |----|
口口口口 |--②-|
口口口口 |----|
21
口口口口 |--①-|
口口口口 |②---|
口口②① |③-④-|
③④口口 |----|
22
①①口口 |--①-|
口口②② |----|
口口口口 |--②-|
口口口口 |----|
23
口口口口 |--①-|
口口口口 |②---|
①②口口 |③-④-|
口口④③ |----|
24
口口口口 |--①-|
②口口① |----|
②口口① |--②-|
口口口口 |----|
25
口口口口 |--①-|
口②①口 |②---|
口③④口 |③---|
口口口口 |④---|
26
口口口口 |--①-|
口①②口 |②---|
③口口③ |③---|
口口口口 |----|
27
口口口③ |①---|
口①②口 |----|
口④①口 |--②-|
口口口口 |③-④-|
28
口口口口 |①---|
口口口口 |----|
口③②口 |②---|
①口口口 |---③|
29
口口口口 |--①-|
口①②口 |-②--|
口④③口 |③-④-|
口口口口 |----|
30
口口口口 |--①-|
口①②口 |-②--|
口④③口 |③-④-|
口口口口 |----|
31
口口口① |----|
口口口② |①--②|
口口口口 |----|
口口口口 |----|
32
口口口口 |①---|
口口口口 |②---|
口口①口 |----|
口②③口 |---③|
33
口口口口 |---①|
②口口口 |----|
口①口口 |----|
口口口口 |②---|
34
①②②口 |①---|
口③③口 |----|
口口口口 |②---|
口口口口 |③---|
35
口口口口 |----|
口口口口 |①--②|
口口口② |----|
口口口① |----|
36
口②口口 |①---|
口口①口 |②---|
口口口口 |----|
口口口口 |----|
37
口口①口 |①---|
口②口口 |②---|
③口口口 |③---|
口口口口 |----|
38
口口口口 |①---|
口口口口 |----|
口③③口 |②---|
①②②口 |③---|
39
口口口口 |----|
①口口① |①---|
口口口口 |----|
口口口口 |----|
40
口③口口 |①---|
口②口口 |②---|
口口①口 |----|
口口口口 |③---|
41
③口口③ |①---|
口口①口 |②---|
口②口口 |----|
口口口口 |③---|
42
口口口口 |①---|
口②②口 |----|
口②②口 |②---|
①口口① |----|
43
口口口口 |--①-|
①①口口 |----|
口口②② |--②-|
口口口口 |----|
44
口口口口 |--①-|
口口②① |②---|
③④口口 |③-④-|
口口口口 |----|
45
口口①① |--①-|
口口口口 |----|
口口口口 |--②-|
②②口口 |----|
46
①②口口 |--①-|
口口口口 |②---|
口口口口 |③-④-|
口口④③ |----|
47
①①口口 |--①-|
口口口口 |----|
口口口口 |--②-|
口口②② |----|
48
口口②① |--①-|
口口口口 |②---|
口口口口 |③-④-|
③④口口 |----|
49
口口口口 |--①-|
①口口② |②---|
③口口③ |③---|
口口口口 |----|
50
口口口口 |①---|
口口口口 |----|
口口②口 |----|
口①①③ |②-③-|
51
②口口口 |①-②-|
口①③口 |----|
口④口口 |③---|
口口口口 |④---|
52
口口口口 |①---|
①口口① |----|
①口口① |----|
口口口口 |----|


不确定度: 0

最終更新:2012年12月03日 22:14