こんなに近くで...

ADVANCED

Level: 3
BPM: 102
Notes: 233

1
口口口口 |----|
口口口口 |----|
口口口口 |----|
口口口口 |----|
2
口①①口 |----|
②口口② |①---|
口口口口 |---②|
口口口口 |----|
3
口口口口 |----|
口口口口 |①---|
口①①口 |---②|
②③③② |--③-|
4
口①①口 |----|
②口口② |①---|
口口口口 |---②|
口口口口 |----|
5
口口口口 |----|
口口口口 |①---|
口①①口 |---②|
②③③② |--③-|
6
口①①口 |----|
②口口② |①---|
口口口口 |---②|
口口口口 |----|
7
口口口口 |----|
口口口口 |①---|
口①①口 |----|
口口口口 |----|
8
②口口① |----|
口口口口 |①--②|
口口口口 |----|
口口口口 |----|
9
口口口口 |①---|
①口③口 |②---|
口②口口 |----|
口口口口 |---③|
10
口口口口 |---①|
口口口口 |----|
口②口① |----|
口口口口 |②---|
11
口口口口 |①---|
口①②口 |②---|
口口③口 |③---|
口⑤④口 |④-⑤-|
12
口口口口 |----|
口口口口 |①--②|
口口③口 |----|
②口口① |--③-|
13
口口③口 |①---|
口②口① |②---|
口口④口 |③---|
口口口口 |--④-|
14
口口③口 |①--②|
口②口① |---③|
口口口口 |----|
口口口口 |----|
15
口口口口 |①---|
①①口口 |②---|
口口②② |③---|
③③④④ |④---|
16
口口①口 |----|
口口②口 |①---|
口口口口 |----|
口口口口 |②---|
17
口口口口 |①---|
口口口口 |②---|
口③①口 |----|
口口②口 |③---|
18
②口口② |①---|
口口口口 |----|
口口口口 |----|
口①口口 |②---|
19
口口口口 |①---|
口②②口 |----|
口④③口 |②---|
①口口① |③-④-|
20
口口口口 |--①-|
①①③③ |--②-|
④④②② |--③-|
口口口口 |--④-|
21
口⑤④口 |--①-|
口口③口 |--②-|
口口②口 |③---|
口口①口 |④-⑤-|
22
口口口口 |--①-|
①①③③ |--②-|
④④②② |--③-|
口口口口 |--④-|
23
口⑤④口 |--①-|
口口③口 |--②-|
口口②口 |③---|
口口①口 |④-⑤-|
24
口口口口 |--①-|
①①③③ |--②-|
④④②② |--③-|
口口口口 |--④-|
25
口⑤④口 |--①-|
口口③口 |--②-|
口口②口 |③---|
口口①口 |④-⑤-|
26
口口口口 |--①-|
口口口⑤ |②---|
③口口④ |③--④|
②口口① |--⑤-|
27
口口口口 |①---|
①口口口 |----|
口③③口 |--②-|
口②②口 |--③-|
28
口口口口 |①---|
口①①口 |--②-|
口口口口
口口口②

口口口口
口④④口
口口口口 |③---|
③口口口 |---④|
29
①口口② |--①-|
口口口口 |-②--|
口口口口 |③-④-|
④口口③ |----|
30
①口口② |--①-|
口口口口 |-②--|
口口口口 |③-④-|
④口口③ |----|
31
②口口① |----|
③口口口 |①--②|
口口口口 |----|
口口口口 |---③|
32
口口口口 |---①|
口口②口 |----|
口①口口 |----|
口口口口 |---②|
33
口口口口 |---①|
口口口口 |----|
口②口① |----|
口口口口 |②---|
34
口口口口 |①---|
口①②口 |②---|
口口③口 |③---|
口⑤④口 |④-⑤-|
35
口口口口 |----|
口口口口 |①--②|
口口③口 |----|
②口口① |--③-|
36
口口③口 |①---|
口②口① |②---|
口口④口 |③---|
口口口口 |--④-|
37
口口③口 |①--②|
口②口① |---③|
口口口口 |----|
口口口口 |----|
38
口口口口 |①---|
①①口口 |②---|
口口②② |③---|
③③④④ |④---|
39
口口①口 |----|
口口②口 |①---|
口口口口 |----|
口口口口 |②---|
40
口口口口 |①---|
口口口口 |②-③-|
口④①口 |----|
口③②口 |④---|
41
②口口② |①---|
口口口口 |----|
口口口口 |----|
口①口口 |②---|
42
口口口口 |①---|
口②②口 |----|
口④③口 |②---|
①口口① |③-④-|
43
口口口口 |--①-|
①①③③ |--②-|
④④②② |--③-|
口口口口 |--④-|
44
口⑤④口 |--①-|
口口③口 |--②-|
口口②口 |③---|
口口①口 |④-⑤-|
45
口口口口 |--①-|
①①③③ |--②-|
④④②② |--③-|
口口口口 |--④-|
46
口⑤④口 |--①-|
口口③口 |--②-|
口口②口 |③---|
口口①口 |④-⑤-|
47
口口口口 |--①-|
①①③③ |--②-|
④④②② |--③-|
口口口口 |--④-|
48
口⑤④口 |--①-|
口口③口 |--②-|
口口②口 |③---|
口口①口 |④-⑤-|
49
口口口口 |--①-|
口口口⑤ |②---|
③口口④ |③--④|
②口口① |--⑤-|
50
口口口口 |①---|
①口口口 |----|
口③③口 |--②-|
口②②口 |--③-|
51
口口口口 |①---|
口①①口 |--②-|
口口口口
口口口②

口口口口
口④④口
口口口口 |③---|
③口口口 |---④|


不确定度: 0

最終更新:2012年12月03日 22:14