こんなに近くで...

EXTREME

Level: 5
BPM: 102
Notes: 362

1
口口口口 |----|
口口口口 |----|
口口口口 |----|
口口口口 |----|
2
口①①口 |----|
②③③② |①---|
口口口口 |---②|
口口口口 |--③-|
3
口口口口 |----|
口口口口 |①---|
口①①口 |---②|
②③③② |--③-|
4
口①①口 |----|
②③③② |①---|
口口口口 |---②|
口口口口 |--③-|
5
口口口口 |----|
口口口口 |①---|
口①①口 |---②|
②③③② |--③-|
6
③①①② |----|
口口口④ |①---|
口口口口 |----|
口口口口 |-②③④|
7
口⑦⑥口 |①②③④|
①口⑧口 |⑤⑥⑦⑧|
③口口②
⑤口口④

口口口口
口⑨口口
口⑪⑩口 |⑨⑩⑪⑫|
⑮⑬⑫⑭ |⑬⑭⑮-|
8
③②①口 |----|
⑤④口口 |-①②③|
口口口口 |----|
口口口口 |--④⑤|
9
口口口口 |①-②③|
口口⑤④ |----|
②①口口 |----|
口③口口 |--④⑤|
10
口口口口 |①-②③|
⑥口口口 |----|
⑤口②① |--④-|
④口口③ |⑤-⑥-|
11
口①②口 |①---|
口口口③ |②---|
口口口④ |③---|
口口口⑤ |④-⑤-|
12
口口口口 |----|
口口口口 |①-②③|
口口口口
③②①口

口口口口
口口口口
口口⑤口 |----|
口④口口 |--④⑤|
13
口⑤④口 |①-②③|
口③口① |--④-|
②口⑦口 |⑤---|
口⑥口口 |--⑥⑦|
14
口⑤④口 |①-②③|
口③口① |-④-⑤|
②口口口
口口口口

口口⑥⑥
口口口口
口口口口 |----|
口口口口 |--⑥-|
15
口口口口 |①---|
①①口口 |②---|
口口②② |③---|
③③⑤④ |④-⑤-|
16
口②①口 |----|
口④③口 |①---|
口口⑤口 |--②-|
口口口口 |③④-⑤|
17
口口口口 |-①--|
⑤口口④ |②-③-|
口①口⑥ |----|
口③②口 |④⑤-⑥|
18
口口口口 |①-②③|
口口口口 |----|
①口口口
③口口②

⑤④④⑤
⑥口口⑥
⑦口口⑦ |---④|
口口口口 |⑤⑥⑦-|
19
口口口口 |①---|
口口②口 |--②-|
口口口口
①①①①

口口口口
口③口口
口⑤④口 |③--④|
口⑦⑥口 |⑤⑥⑦-|
20
口口口口 |--①-|
①①④④ |-②③-|
⑥⑤③② |--④-|
口口口口 |-⑤⑥-|
21
口⑧⑦口 |--①-|
口⑥⑤口 |②-③④|
口④③口 |⑤-⑥-|
口②①口 |⑦-⑧-|
22
口口口口 |--①-|
①①④④ |-②③-|
⑥⑤③② |--④-|
口口口口 |-⑤⑥-|
23
口⑧⑦口 |--①-|
口⑥⑤口 |②-③④|
口④③口 |⑤-⑥-|
口②①口 |⑦-⑧-|
24
口口口口 |--①-|
①①④④ |-②③-|
⑥⑤③② |--④-|
口口口口 |-⑤⑥-|
25
口⑧⑦口 |--①-|
口⑥⑤口 |②-③④|
口④③口 |⑤-⑥-|
口②①口 |⑦-⑧-|
26
口口口口 |--①-|
⑥口口⑤ |②-③-|
③口口④ |④--⑤|
②口口① |--⑥-|
27
①口口口 |①---|
④④④④ |----|
③③③③ |--②-|
②②②② |③-④-|
28
①①①① |①---|
口⑦⑥口 |--②-|
口⑤④口 |③-④⑤|
③口口② |-⑥-⑦|
29
①口口② |--①-|
⑥口口口 |-②--|
⑤口口口 |③-④-|
④口口③ |--⑤⑥|
30
①口口② |--①-|
⑥口口口 |-②--|
⑤口口口 |③-④-|
④口口③ |--⑤⑥|
31
③②①口 |----|
⑤④口口 |①-②③|
口口口口 |----|
口口口口 |--④⑤|
32
口口口口 |①-②③|
口口⑤④ |----|
②①口口 |----|
口③口口 |--④⑤|
33
口口口口 |①-②③|
⑥口口口 |----|
⑤口②① |--④-|
④口口③ |⑤-⑥-|
34
口①②口 |①---|
口口口③ |②---|
口口口④ |③---|
口口口⑤ |④-⑤-|
35
口口口口 |----|
口口口口 |①-②③|
口口口口
③②①口

口口口口
口口口口
口口⑤口 |----|
口④口口 |--④⑤|
36
口⑤④口 |①-②③|
口③口① |--④-|
②口⑦口 |⑤---|
口⑥口口 |--⑥⑦|
37
口⑤④口 |①-②③|
口③口① |-④-⑤|
②口口口
口口口口

口口⑥⑥
口口口口
口口口口 |----|
口口口口 |--⑥-|
38
口口口口 |①---|
①①口口 |②---|
口口②② |③--④|
③③⑤④ |⑤---|
39
口②①口 |----|
口④③口 |①---|
口口⑤口 |--②-|
口口口口 |③④-⑤|
40
口口口口 |-①--|
⑤口口④ |②-③-|
口①口⑥ |----|
口③②口 |④⑤-⑥|
41
口口口口 |①-②③|
口口口口 |----|
①口口口
③口口②

⑤④④⑤
⑥口口⑥
⑦口口⑦ |---④|
口口口口 |⑤⑥⑦-|
42
口口口口 |①---|
口口②口 |--②-|
口口口口
①①①①

口口口口
口③口口
口④⑤口 |③--④|
口⑦⑥口 |⑤⑥⑦-|
43
口口口口 |--①-|
①①④④ |-②③-|
⑥⑤③② |--④-|
口口口口 |-⑤⑥-|
44
口⑧⑦口 |--①-|
口⑥⑤口 |②-③④|
口④③口 |⑤-⑥-|
口②①口 |⑦-⑧-|
45
口口口口 |--①-|
①①④④ |-②③-|
⑥⑤③② |--④-|
口口口口 |-⑤⑥-|
46
口⑧⑦口 |--①-|
口⑥⑤口 |②-③④|
口④③口 |⑤-⑥-|
口②①口 |⑦-⑧-|
47
口口口口 |--①-|
①①④④ |-②③-|
⑥⑤③② |--④-|
口口口口 |-⑤⑥-|
48
口⑧⑦口 |--①-|
口⑥⑤口 |②-③④|
口④③口 |⑤-⑥-|
口②①口 |⑦-⑧-|
49
口口口口 |--①-|
⑥口口⑤ |②-③-|
③口口④ |④--⑤|
②口口① |--⑥-|
50
①口口口 |①---|
口③③口 |----|
口②②口 |----|
口口口口 |②-③-|
51
口①①口 |①---|
口⑧⑦⑥ |--②-|
⑤口口④ |③-④-|
③口口② |⑤⑥⑦⑧|
52
口口口口 |①---|
①口口口 |----|
口口口口 |----|
口口口口 |----|


不确定度: 0

最終更新:2012年12月03日 22:13