全力少年

BASIC

Level: 2
BPM: 133
Notes: 238

1
口口口口 |----|
口口口口 |----|
口口口口 |----|
口口口口 |----|
2
口②②口 |①---|
口①①口 |----|
口口口口 |②---|
口口口口 |----|
3
口口口口 |①---|
②口口② |----|
①口口① |②---|
口口口口 |----|
4
口口口口 |①---|
口口口口 |----|
口②②口 |②---|
口①①口 |----|
5
口口口口 |①---|
口②②口 |----|
①口口① |②---|
口口口口 |----|
6
口②②口 |①---|
①口口① |----|
口口口口 |②---|
口口口口 |----|
7
①口口① |①---|
②口口② |----|
口口口口 |②---|
口口口口 |----|
8
口口口口 |①---|
口①②口 |----|
口口口口 |②---|
口口口口 |----|
9
口口口口 |①---|
②口口② |----|
①口口① |②---|
口口口口 |----|
10
口口口口 |①---|
②口口② |----|
①口口① |②---|
口口口口 |----|
11
口口口口 |①---|
口①②口 |----|
口②①口 |②---|
口口口口 |----|
12
口口口口 |①---|
①口口② |----|
②口口① |②---|
口口口口 |----|
13
②口口② |①---|
口①①口 |----|
口口口口 |②---|
口口口口 |----|
14
口口口口 |①---|
①口口① |----|
②口口② |②---|
口口口口 |----|
15
口口口口 |①---|
②口口② |----|
口①①口 |②---|
口口口口 |----|
16
口①①口 |①---|
②口口② |----|
口口口口 |②---|
口口口口 |----|
17
①口口① |①---|
②口口② |----|
口口口口 |②---|
口口口口 |----|
18
口口口口 |①---|
口口口口 |----|
①口口① |----|
口口口口 |----|
19
口口口口 |①---|
①口口口 |②---|
②③④口 |③---|
口口口口 |④---|
20
口口口口 |①---|
口④③② |②---|
口口口① |③---|
口口口口 |④---|
21
口口口口 |①---|
口④③口 |②---|
口①②口 |③---|
口口口口 |④---|
22
①口口① |----|
口口口口 |----|
口口口口 |①---|
口口口口 |----|
23
口口口口 |①---|
①口口① |----|
②口口② |②---|
口口口口 |----|
24
口口口口 |①---|
口口口口 |----|
口口口口 |②---|
①②②① |----|
25
口口口口 |①---|
口口口口 |②---|
④②①③ |③---|
口口口口 |④---|
26
口口口口 |①---|
④②①③ |②---|
口口口口 |③---|
口口口口 |④---|
27
口口口口 |①---|
②①①② |----|
口①①口 |②---|
口口口口 |----|
28
口口口口 |①---|
口口口口 |----|
①②②① |②---|
口口口口 |----|
29
口口口口 |①---|
②①①② |----|
口口口口 |②---|
口口口口 |----|
30
④口口③ |①---|
口口口口 |②---|
②口口① |③---|
口口口口 |④---|
31
口①①口 |①---|
②口口② |----|
口口口口 |②---|
口口口口 |----|
32
口口口口 |①---|
口③口口 |②---|
口②口口 |③---|
口①口口 |----|
33
①口口① |①---|
口②②口 |----|
口口口口 |②---|
口口口口 |----|
34
口口口口 |①---|
口口③口 |②---|
口口②口 |③---|
口口①口 |----|
35
口口口口 |①---|
口②②口 |----|
①口口① |②---|
口口口口 |----|
36
①口口① |①---|
口②②口 |----|
口口口口 |②---|
口口口口 |----|
37
口①①口 |①---|
口②②口 |②---|
口③③口 |③---|
口④④口 |④---|
38
口口口口 |①---|
③口口③ |②---|
②口口② |③---|
①口口① |----|
39
口口口口 |①---|
口①①口 |②---|
口②②口 |③---|
④③③④ |④---|
40
③口口③ |①---|
②口口② |②---|
①口口① |③---|
口口口口 |----|
41
口①①口 |①---|
口②②口 |②---|
口③③口 |③---|
口④④口 |④---|
42
口口口口 |①---|
③③③③ |②---|
②口口② |③---|
①口口① |----|
43
口①①口 |①---|
②②口口 |----|
口口口口 |②---|
口口口口 |----|
44
口口口口 |①---|
口口口口 |----|
口口①① |②---|
②②口口 |----|
45
①口口① |①---|
②口口② |----|
口口口口 |②---|
口口口口 |----|
46
口口口口 |①---|
口口口口 |----|
①口口① |②---|
②口口② |----|
47
口口口口 |①---|
②①①③ |----|
口①①口 |②---|
口口口口 |③---|
48
口口口口 |①---|
口③④口 |②---|
①口口② |③---|
口口口口 |④---|
49
口③④口 |①---|
口口口口 |②---|
口①②口 |③---|
口口口口 |④---|
50
口口口口 |①---|
口①②口 |②---|
口口口口 |----|
口口口口 |----|
51
口口口口 |①---|
①②②① |----|
口口口口 |②---|
口口口口 |----|
52
口口口口 |①---|
口口口口 |----|
②①①② |②---|
口口口口 |----|
53
口口口口 |①---|
①②②① |----|
口口口口 |②---|
口口口口 |----|
54
口口口口 |①---|
口口口口 |----|
②①①② |②---|
口口口口 |----|
55
口口口口 |①---|
①②②① |----|
口口口口 |②---|
口口口口 |----|
56
口口口口 |①---|
①②②① |----|
①②②① |②---|
口口口口 |----|


不确定度: 0

最終更新:2012年12月03日 22:13